Today is a free download without charge Download

Трамвай «Желание» / A Streetcar Named Desire (Элиа Казан / Elia Kazan) [1951, США, драма, BDRip 720p] MVO Sub Eng + Original Eng

Reply to topic
 
Author
Message

Delia ®

Gender:

Longevity: 10 years

Posts: 1821

Торрент-статистика

Post 04-Apr-2012 22:51

[Quote]

Трамвай «Желание» / A Streetcar Named Desire«...When she got there she met the brute Stan, and the side of New Orleans she hardly knew existed.»--
Год выпуска: 1951
Страна: США
Жанр: драма, мелодрама, ...
Продолжительность: 02:04:55
Перевод: Профессиональный (многоголосый закадровый)
Субтитры: English (srt)
Режиссер: Элиа Казан
Сценарий: Теннесси Уильямс, Оскар Сол
Продюсер: Чарльз К. Фельдман
Оператор: Хэрри Стрэдлинг ст.
Композитор: Алекс Норт
Художник: Ричард Дэй, Джордж Джеймс Хопкинс
Монтаж: Дэвид Вейсбарт- В ролях: Вивьен Ли (Vivien Leigh), Марлон Брандо (Marlon Brando), Ким Хантер (Kim Hunter), Карл Молден (Karl Malden), Руди Бонд (Rudy Bond), Ник Дэннис (Nick Dennis), Пег Хиллиас (Peg Hillias), Райт Кинг (Wright King), Ричард Гаррик (Richard Garrick), Энн Дир (Ann Dere), Эдна Томас (Edna Thomas), Мики Кун (Mickey Kuhn), Мэл Арчер (Mel Archer), Дан Бен Амоц (Dahn Ben Amotz), Мариэтта Кэнти (Marietta Canty), Джон Джордж (John George), Честер Джонс (Chester Jones), Лайл Лэтелл (Lyle Latell), Макси Троуэр (Maxie Thrower), Чарльз Вагенхейм (Charles Wagenheim)
Описание: Далеко не юная, но все еще привлекательная Бланш Дюбуа приезжает в Новый Орлеан к беременной сестре Стелле, живущей с мужем Стэнли в местных трущобах. Бланш сообщает сестре, что разорена, ушла с работы и жить ей негде и не на что.Стэнли, воплощение естественности и грубости, сразу невзлюбил её за пристрастие к алкоголю и неуместное кокетство. Вскоре у Бланш появляется поклонник и призрачная надежда на замужество, но Стэнли расстраивает их помолвку...-- --Качество: BDRip
Формат: MKV
Видео кодек: H.264 (AVC)
Аудио кодеk: AC3
Видео: 980x720 (4:3), 23.976 fps, AVC, 4 433 Kbps
Аудио: AC3, 192 Kbps, 48.0 KHz, 2 ch RUS MVO
Аудио #2: AC3, 384 Kbps, 48.0 KHz, 1 ch ENG

МедиаИнфо

Код:
General
Complete name                    : A.Streetcar.Named.Desire.1951.BDRip720p-F.HD.mkv
Format                           : Matroska
File size                        : 4.37 GiB
Duration                         : 2h 4mn
Overall bit rate                 : 5 011 Kbps
Encoded date                     : UTC 2012-04-04 18:11:44
Writing application              : mkvmerge v5.4.0 ('Piper') built on Mar 10 2012 13:34:39
Writing library                  : libebml v1.2.3 + libmatroska v1.3.0
Video
ID                               : 1
Format                           : AVC
Format/Info                      : Advanced Video Codec
Format profile                   : [email protected]
Format settings, CABAC           : Yes
Format settings, ReFrames        : 10 frames
Muxing mode                      : Container [email protected]
Codec ID                         : V_MPEG4/ISO/AVC
Duration                         : 2h 4mn
Bit rate                         : 4 433 Kbps
Width                            : 980 pixels
Height                           : 720 pixels
Display aspect ratio             : 4:3
Frame rate                       : 23.976 fps
Color space                      : YUV
Chroma subsampling               : 4:2:0
Bit depth                        : 8 bits
Scan type                        : Progressive
Bits/(Pixel*Frame)               : 0.262
Stream size                      : 3.78 GiB (87%)
Title                            : Freisland
Writing library                  : x264 core 122 r2184 5c85e0a
Encoding settings                : cabac=1 / ref=10 / deblock=1:-2:-2 / analyse=0x3:0x113 / me=umh / subme=10 / psy=1 / psy_rd=1.20:0.15 / mixed_ref=1 / me_range=32 / chroma_me=1 / trellis=2 / 8x8dct=1 / cqm=0 / deadzone=21,11 / fast_pskip=0 / chroma_qp_offset=-3 / threads=6 / sliced_threads=0 / nr=0 / decimate=0 / interlaced=0 / bluray_compat=0 / constrained_intra=0 / bframes=10 / b_pyramid=2 / b_adapt=2 / b_bias=0 / direct=3 / weightb=1 / open_gop=0 / weightp=2 / keyint=230 / keyint_min=22 / scenecut=40 / intra_refresh=0 / rc=2pass / mbtree=0 / bitrate=4433 / ratetol=1.0 / qcomp=0.70 / qpmin=0 / qpmax=69 / qpstep=4 / cplxblur=20.0 / qblur=0.5 / ip_ratio=1.40 / pb_ratio=1.20 / aq=2:0.90
Color primaries                  : BT.709-5, BT.1361, IEC 61966-2-4, SMPTE RP177
Transfer characteristics         : BT.709-5, BT.1361
Matrix coefficients              : BT.709-5, BT.1361, IEC 61966-2-4 709, SMPTE RP177
Audio #1
ID                               : 2
Format                           : AC-3
Format/Info                      : Audio Coding 3
Mode extension                   : CM (complete main)
Codec ID                         : A_AC3
Duration                         : 2h 4mn
Bit rate mode                    : Constant
Bit rate                         : 192 Kbps
Channel(s)                       : 2 channels
Channel positions                : Front: L R
Sampling rate                    : 48.0 KHz
Bit depth                        : 16 bits
Stream size                      : 172 MiB (4%)
Language                         : Russian
Audio #2
ID                               : 3
Format                           : AC-3
Format/Info                      : Audio Coding 3
Mode extension                   : CM (complete main)
Codec ID                         : A_AC3
Duration                         : 2h 4mn
Bit rate mode                    : Constant
Bit rate                         : 384 Kbps
Channel(s)                       : 1 channel
Channel positions                : Front: C
Sampling rate                    : 48.0 KHz
Bit depth                        : 16 bits
Stream size                      : 343 MiB (8%)
Text
ID                               : 4
Format                           : UTF-8
Codec ID                         : S_TEXT/UTF8
Codec ID/Info                    : UTF-8 Plain Text
Menu
00:00:00.000                     : en:Chapter 01
00:01:16.076                     : en:Chapter 02
00:05:16.733                     : en:Chapter 03
00:11:27.478                     : en:Chapter 04
00:14:58.898                     : en:Chapter 05
00:21:14.481                     : en:Chapter 06
00:29:34.147                     : en:Chapter 07
00:34:17.430                     : en:Chapter 08
00:38:18.838                     : en:Chapter 09
00:40:15.746                     : en:Chapter 10
00:43:40.951                     : en:Chapter 11
00:45:09.707                     : en:Chapter 12
00:51:12.069                     : en:Chapter 13
00:54:13.291                     : en:Chapter 14
00:59:03.164                     : en:Chapter 15
01:02:59.150                     : en:Chapter 16
01:15:42.538                     : en:Chapter 17
01:21:14.619                     : en:Chapter 18
01:25:26.162                     : en:Chapter 19
01:29:36.746                     : en:Chapter 20
01:36:43.380                     : en:Chapter 21
01:41:18.072                     : en:Chapter 22
01:47:33.280                     : en:Chapter 23
01:51:07.035                     : en:Chapter 24
01:52:48.762                     : en:Chapter 25
01:56:54.132                     : en:Chapter 26
02:01:35.204                     : en:Chapter 27
02:04:31.964                     : en:Chapter 28
02:04:55.279                     : en:Chapter 29

Знаете ли Вы, что...

» Фраза «Стелла! Эй, Стелла!» заняла 45-е место в списке 100 самых крылатых кинофраз, составленном Американским киноинститутом.
» Картина была снята за 36 дней.
» Вивьен Ли, которой на то время было 36 лет, пришлось старить с помощью грима.
» Роль Бланш была первоначально предложена Джессике Тэнди, затем от нее отказалась Оливия де Хэвилленд, а Вивьен Ли она досталась потому, что фильмы с участием этой актрисы собирали большую кассу.
» Джон Гарфилд отказался от роли Стэнли Ковальски, так как не хотел оказаться в тени своей звездной партнерши.
» На ранней стадии разработки проекта Уильям Уайлер изъявлял свой интерес к экранизации пьесы Теннеси Уильямса и видел в роли Бланш Бетт Дэвис.
» Элиа Казан поначалу не хотел браться за постановку, поскольку считал, что он сделал с пьесой все что мог на театральной сцене. Уговорил же его стать режиссером фильма сам Теннеси Уильямс.
» Снявшись в этой картине, Вивьен Ли, и до этого страдавшая серьезным психическим заболеванием, именуемым «биполярное расстройство», стала плохо отличать действительность от жизни ее героини.
» Микки Кун, сыгравший племянника героини Вивьен Ли в «Унесенных ветром», исполнил в «Трамвае «Желание» роль моряка, который помогает Бланш войти в трамвай.
» Этот фильм и «Телесеть» (1976) вошли в историю как единственные две картины, которые были удостоены по три «Оскара» за актерскую игру.
» До съемок в фильме Вивьен Ли сыграла Бланш в первой лондонской постановке пьесы Теннеси Уильямса, режиссером которой был ее тогдашний муж Лоренс Оливье. Позже Ли призналась, что Оливье повлиял на ее исполнение роли Бланш в картине больше, чем постановщик киноверсии Элиа Казан.
» Сразу девять участников бродвейской постановки «Трамвая «Желание» во главе с Марлоном Брандо повторно исполнили свои роли в киноверсии.
» Англичанка Вивьен Ли чувствовала себя не в своей тарелке, снимаясь в одной компании с членами нью-йоркской театральной труппы. И эти ее ощущения Элиа Казан удачно использовал в картине.
» В частной беседе Брандо признался, что ненавидит своего персонажа.
» В 2007 году Американский киноинститут поставил эту ленту на 47-е место в списке 100 величайших фильмов за всю историю.


Скриншоты

     
     

_________________
Человек – это канат, натянутый между животным и сверхчеловеком, – канат над пропастью.
В человеке ценно то, что он мост, а не цель. Фридрих Ницше
Other forum [Profile] [PM]
Display posts from previous:    
Reply to topic

The time now is: Today 02:26

All times are GMT + 3 Hours



You cannot post new topics in this forum
You cannot reply to topics in this forum
You cannot edit your posts in this forum
You cannot delete your posts in this forum
You cannot vote in polls in this forum
You cannot attach files in this forum
You cannot download files in this forum