Today is a free download without charge Download

(Ambient) Bvdub - Tribes At The Temple Of Silence - 2011, FLAC (tracks+.cue) lossless

Reply to topic
 
Author
Message

Paullo ®

Gender:

Longevity: 10 years

Posts: 393

Location: деактивировано, причина: - Последний визит: 2017-06-22 darkos_bot 12.06.19г

Торрент-статистика

Post 18-Jan-2011 17:29

[Quote]

Bvdub - Tribes At The Temple Of Silence Жанр: Ambient
Год выпуска альбома: 2011
Аудиокодек: FLAC
Битрейт аудио: lossless
Тип рипа: tracks+cue
Год выпуска издания: 2011
Лейбл издания: Home Normal
Номер каталога: home n023
Полный скан буклета: Нет
Продолжительность: 01:19:08


01.A Quiet Doorway Opens 11:04
02.The Past Disappears 11:30
03.Sanctuary 14:24
04.These Walls Will Always Remember (For Dani) 08:01
05.Morning Rituals 15:12
06.We Move As One 10:40
07.Towers Rise To The Sky 08:18

LOG

Exact Audio Copy V1.0 beta 1 from 15. November 2010
EAC extraction logfile from 31. December 2010, 11:38
Bvdub / Tribes At The Temple Of Silence
Used drive : HL-DT-STDVDRAM GH22NS50 Adapter: 1 ID: 0
Read mode : Secure
Utilize accurate stream : Yes
Defeat audio cache : Yes
Make use of C2 pointers : No
Read offset correction : 667
Overread into Lead-In and Lead-Out : No
Fill up missing offset samples with silence : Yes
Delete leading and trailing silent blocks : No
Null samples used in CRC calculations : Yes
Used interface : Native Win32 interface for Win NT & 2000
Gap handling : Appended to previous track
Used output format : Internal WAV Routines
Sample format : 44.100 Hz; 16 Bit; Stereo
TOC of the extracted CD
Track | Start | Length | Start sector | End sector
---------------------------------------------------------
1 | 0:00.00 | 11:04.23 | 0 | 49822
2 | 11:04.23 | 11:29.37 | 49823 | 101534
3 | 22:33.60 | 14:24.00 | 101535 | 166334
4 | 36:57.60 | 8:00.74 | 166335 | 202408
5 | 44:58.59 | 15:12.01 | 202409 | 270809
6 | 60:10.60 | 10:40.25 | 270810 | 318834
7 | 70:51.10 | 8:17.65 | 318835 | 356174
Track 1
Filename C:\R\01 - A Quiet Doorway Opens.wav
Pre-gap length 0:00:02.00
Peak level 84.0 %
Extraction speed 5.3 X
Track quality 100.0 %
Test CRC 07EBF4E8
Copy CRC 07EBF4E8
Track not present in AccurateRip database
Copy OK
Track 2
Filename C:\R\02 - The Past Disappears.wav
Peak level 87.8 %
Extraction speed 6.4 X
Track quality 100.0 %
Test CRC F00623BC
Copy CRC F00623BC
Track not present in AccurateRip database
Copy OK
Track 3
Filename C:\R\03 - Sanctuary.wav
Peak level 86.0 %
Extraction speed 7.4 X
Track quality 100.0 %
Test CRC 1D83A8FD
Copy CRC 1D83A8FD
Track not present in AccurateRip database
Copy OK
Track 4
Filename C:\R\04 - These Walls Will Always Remember (For Dani).wav
Peak level 87.1 %
Extraction speed 8.0 X
Track quality 100.0 %
Test CRC FDAB2DC5
Copy CRC FDAB2DC5
Track not present in AccurateRip database
Copy OK
Track 5
Filename C:\R\05 - Morning Rituals.wav
Peak level 71.9 %
Extraction speed 9.0 X
Track quality 100.0 %
Test CRC C5B63A69
Copy CRC C5B63A69
Track not present in AccurateRip database
Copy OK
Track 6
Filename C:\R\06 - We Move As One.wav
Peak level 95.2 %
Extraction speed 9.3 X
Track quality 100.0 %
Test CRC C863B380
Copy CRC C863B380
Track not present in AccurateRip database
Copy OK
Track 7
Filename C:\R\07 - Towers Rise To The Sky.wav
Peak level 61.4 %
Extraction speed 9.5 X
Track quality 100.0 %
Test CRC 8BB08C87
Copy CRC 8BB08C87
Track not present in AccurateRip database
Copy OK
None of the tracks are present in the AccurateRip database
No errors occurred
End of status report
==== Log checksum 707619B29D873AEC0F5BF0A4CB54716FC794B5F70B124EAB424045842D13E2EE ====

Non-compilant Cue

REM DATE 2011
REM DISCID 53128D07
REM COMMENT "ExactAudioCopy v1.0b1"
PERFORMER "Bvdub"
TITLE "Tribes At The Temple Of Silence"
FILE "01 - A Quiet Doorway Opens.wav" WAVE
TRACK 01 AUDIO
TITLE "A Quiet Doorway Opens"
PERFORMER "Bvdub"
INDEX 01 00:00:00
FILE "02 - The Past Disappears.wav" WAVE
TRACK 02 AUDIO
TITLE "The Past Disappears"
PERFORMER "Bvdub"
INDEX 01 00:00:00
FILE "03 - Sanctuary.wav" WAVE
TRACK 03 AUDIO
TITLE "Sanctuary"
PERFORMER "Bvdub"
INDEX 01 00:00:00
FILE "04 - These Walls Will Always Remember (For Dani).wav" WAVE
TRACK 04 AUDIO
TITLE "These Walls Will Always Remember (For Dani)"
PERFORMER "Bvdub"
INDEX 01 00:00:00
FILE "05 - Morning Rituals.wav" WAVE
TRACK 05 AUDIO
TITLE "Morning Rituals"
PERFORMER "Bvdub"
INDEX 01 00:00:00
FILE "06 - We Move As One.wav" WAVE
TRACK 06 AUDIO
TITLE "We Move As One"
PERFORMER "Bvdub"
INDEX 01 00:00:00
FILE "07 - Towers Rise To The Sky.wav" WAVE
TRACK 07 AUDIO
TITLE "Towers Rise To The Sky"
PERFORMER "Bvdub"
INDEX 01 00:00:00

_________________
сами мы не местные...
Other forum [Profile] [PM]
Display posts from previous:    
Reply to topic

The time now is: Today 10:57

All times are GMT + 3 Hours



You cannot post new topics in this forum
You cannot reply to topics in this forum
You cannot edit your posts in this forum
You cannot delete your posts in this forum
You cannot vote in polls in this forum
You cannot attach files in this forum
You cannot download files in this forum