Today is a free download without charge Download

Прозрение / Los ojos de Julia [Гильем Моралес (2010) ужасы, триллер, BDRip 1080p]

Reply to topic
 
Author
Message

Delia ®

Gender:

Longevity: 10 years

Posts: 1821

Торрент-статистика

Post 04-Apr-2012 12:14

[Quote]

Прозрение / Los ojos de Julia«En la oscuridad no puedes esconderte»--
Год выпуска: 2010
Страна: Испания
Жанр: ужасы, триллер
Продолжительность: 01:57:13
Перевод: Многоголосый закадровый
Субтитры: Russian 2, English (srt)
Режиссер: Гильем Моралес
Сценарий: Гильем Моралес, Ориол Паоло
Продюсер: Хуан Карлос Каро, Гильермо дель Торо, Хосе Торрескуса, ...
Оператор: Оскар Фаура
Композитор: Фернандо Веласкез
Художник: Балтер Гэлларт, Мария Рейс, Didac Bono
Монтаж: Хоан Манэль Виласека- В ролях: Белен Руэда (Belen Rueda), Льюис Омар (Lluis Homar), Pablo Derqui, Francesc Orella, Джоан Дальмау (Joan Dalmau), Хулия Гутьеррес Каба (Julia Gutierrez Caba), Борис Руис (Boris Ruiz), Dani Codina, Андреа Эрмоса (Andrea Hermosa), Даниель Грао (Daniel Grao), Пере Вентура (Pere Ventura), Oscar Foronda, Рамон Морено (Ramon Moreno), Jose Sanchez Orosa, Jose Sanchez, Carlos Fabregas, Клара Сегура (Clara Segura), Catalina Munar, Лаура Барба (Laura Barba), Миа Эстеве (Mia Esteve)
Описание: Бывший астроном Джулия, страдающая от прогрессирующей болезни глаз, обнаруживает свою сестру-близнеца Сару задохнувшейся в петле в подвале ее старого дома. Официальная версия полиции — самоубийство; причина трагедии — полная потеря зрения в результате того же заболевания. Однако Джулия инстинктивно чувствует, что Сару безжалостно и расчетливо убили. Несмотря на безразличие служителей закона и настороженность ее спутника жизни Исаака, она начинает собственное расследование. Найти убийцу ей нужно до того, как в ее глазах окончательно померкнет свет.-- --Качество: BDRip
Формат: MKV
Видео кодек: H.264 (AVC)
Аудио кодеk: AC3
Видео: 1920x816 (2.35:1), 23.976 fps, AVC, 4 699 Kbps
Аудио: AC3, 640 Kbps, 48.0 KHz, 6 ch RUS

МедиаИнфо

Код:
General
Complete name                    : Prozrenie.2010.BDRip1080p-F.HD.mkv
Format                           : Matroska
File size                        : 4.37 GiB
Duration                         : 1h 57mn
Overall bit rate                 : 5 340 Kbps
Encoded date                     : UTC 2012-04-04 07:15:57
Writing application              : mkvmerge v5.4.0 ('Piper') built on Mar 10 2012 13:34:39
Writing library                  : libebml v1.2.3 + libmatroska v1.3.0
Video
ID                               : 1
Format                           : AVC
Format/Info                      : Advanced Video Codec
Format profile                   : [email protected]
Format settings, CABAC           : Yes
Format settings, ReFrames        : 5 frames
Muxing mode                      : Container [email protected]
Codec ID                         : V_MPEG4/ISO/AVC
Duration                         : 1h 57mn
Bit rate                         : 4 699 Kbps
Width                            : 1 920 pixels
Height                           : 816 pixels
Display aspect ratio             : 2.35:1
Frame rate                       : 23.976 fps
Color space                      : YUV
Chroma subsampling               : 4:2:0
Bit depth                        : 8 bits
Scan type                        : Progressive
Bits/(Pixel*Frame)               : 0.125
Stream size                      : 3.76 GiB (86%)
Title                            : Freeisland
Writing library                  : x264 core 122 r2184 5c85e0a
Encoding settings                : cabac=1 / ref=5 / deblock=1:-3:-3 / analyse=0x3:0x113 / me=umh / subme=10 / psy=1 / psy_rd=1.10:0.15 / mixed_ref=1 / me_range=32 / chroma_me=1 / trellis=2 / 8x8dct=1 / cqm=0 / deadzone=21,11 / fast_pskip=0 / chroma_qp_offset=-3 / threads=6 / sliced_threads=0 / nr=0 / decimate=1 / interlaced=0 / bluray_compat=0 / constrained_intra=0 / bframes=7 / b_pyramid=2 / b_adapt=2 / b_bias=0 / direct=3 / weightb=1 / open_gop=0 / weightp=2 / keyint=230 / keyint_min=22 / scenecut=40 / intra_refresh=0 / rc=2pass / mbtree=0 / bitrate=4699 / ratetol=1.0 / qcomp=0.70 / qpmin=0 / qpmax=69 / qpstep=4 / cplxblur=20.0 / qblur=0.5 / ip_ratio=1.40 / pb_ratio=1.20 / aq=2:0.90
Color primaries                  : BT.709-5, BT.1361, IEC 61966-2-4, SMPTE RP177
Transfer characteristics         : BT.709-5, BT.1361
Matrix coefficients              : BT.709-5, BT.1361, IEC 61966-2-4 709, SMPTE RP177
Audio
ID                               : 2
Format                           : AC-3
Format/Info                      : Audio Coding 3
Mode extension                   : CM (complete main)
Codec ID                         : A_AC3
Duration                         : 1h 57mn
Bit rate mode                    : Constant
Bit rate                         : 640 Kbps
Channel(s)                       : 6 channels
Channel positions                : Front: L C R, Side: L R, LFE
Sampling rate                    : 48.0 KHz
Bit depth                        : 16 bits
Stream size                      : 537 MiB (12%)
Language                         : Russian
Text #1
ID                               : 3
Format                           : UTF-8
Codec ID                         : S_TEXT/UTF8
Codec ID/Info                    : UTF-8 Plain Text
Language                         : Russian
Text #2
ID                               : 4
Format                           : UTF-8
Codec ID                         : S_TEXT/UTF8
Codec ID/Info                    : UTF-8 Plain Text
Language                         : Russian
Text #3
ID                               : 5
Format                           : UTF-8
Codec ID                         : S_TEXT/UTF8
Codec ID/Info                    : UTF-8 Plain Text


Скриншоты

     
     

_________________
Человек – это канат, натянутый между животным и сверхчеловеком, – канат над пропастью.
В человеке ценно то, что он мост, а не цель. Фридрих Ницше
Other forum [Profile] [PM]
Display posts from previous:    
Reply to topic

The time now is: Today 07:51

All times are GMT + 3 Hours



You cannot post new topics in this forum
You cannot reply to topics in this forum
You cannot edit your posts in this forum
You cannot delete your posts in this forum
You cannot vote in polls in this forum
You cannot attach files in this forum
You cannot download files in this forum