Today is a free download without charge Download

Бесстрашный / Fearless / Huo Yuan Jia (Ронни Ю / Ronni U) [2006 г., Боевик,Кунг-Фу, DVD9]

Reply to topic
 
Author
Message

Стасмэн ®

Gender:

Longevity: 10 years

Posts: 133

Торрент-статистика

Post 04-Apr-2012 10:18

[Quote]

Бесстрашный / Fearless / Huo Yuan Jia
Год выпуска: 2006
Страна: США ,Китай ,Гонконг
Жанр: Боевик,Кунг-Фу
Продолжительность: 01:39:19
Перевод: Профессиональный(дублированный)
Режиссер: Ронни Ю / Ronni U
Продюссер: Уильям Конг, Джет Ли, Ян Бутин
Сценарий: Крис Чоу, Чи-Йонг То
В ролях: Джет Ли,Шидо Накамура,Бетти Сунь,Йонг Донг,Хи Чинг Пав,Юн Ку,Натан Джонс,Брэндон Ри...
Описание: Начало 20 века. Хо Юаньцзя мечтает пойти по стопам своего отца, став бойцом мирового класса. Он просто ослеплен желанием стать величайшим и поднять престиж своего дома. Выиграв множество боев, он достигает цели, но это не приносит счастья, а, наоборот, случается ужасная трагедия — погибают его близкие.


Качество: DVD9
Формат: DVD Video
Видео кодек: MPEG2
Аудио кодек: DTS,AC3
Видео: PAL 16:9 (720x576) VBR Auto Pan&Scan,Auto Letterboxed, ~ 25.000 fps; ~ 7180.87 kbps avg
Аудио:
Audio #1: Russian AC3, 3/2 (L,C,R,SL,SR)+LFE ch, 384 kbps, Delay 0 mSec
Audio #2: Chinese AC3, 3/2 (L,C,R,SL,SR)+LFE ch, 384 kbps, Delay 0 mSec
Audio #3: Russian DTS, 3/2 (L,C,R,SL,SR), 768 kbps, Delay 0 mSec
Субтитры: русские,украинские

MediaInfo

Код:
Полное имя                               : G:\DVD\Бесстрашный\VIDEO_TS\VTS_11_1.VOB
Формат                                   : MPEG-PS
Размер файла                             : 1024 Мбайт
Продолжительность                        : 19 м.
Режим общего битрейта                    : Переменный
Общий поток                              : 7348 Кбит/сек
Видео
Идентификатор                            : 224 (0xE0)
Формат                                   : MPEG Video
Версия формата                           : Version 2
Профиль формата                          : [email protected]
Параметр BVOP формата                    : Да
Параметр матрицы формата                 : Выборочная
Параметр GOP формата                     : M=2, N=12
Продолжительность                        : 19 м.
Вид битрейта                             : Переменный
Битрейт                                  : 5679 Кбит/сек
Максимальный битрейт                     : 9800 Кбит/сек
Ширина                                   : 720 пикселей
Высота                                   : 576 пикселей
Соотношение сторон                       : 16:9
Частота кадров                           : 25,000 кадров/сек
Стандарт вещания                         : PAL
Цветовое пространство                    : YUV
Субдискретизация насыщенности            : 4:2:0
Битовая глубина                          : 8 бит
Тип развёртки                            : Чересстрочная
Порядок развёртки                        : Верхнее поле первое
Метод сжатия                             : С потерями
Бит/(Пиксели*Кадры)                      : 0.548
Размер потока                            : 791 Мбайт (77%)
Аудио #1
Идентификатор                            : 189 (0xBD)-128 (0x80)
Формат                                   : AC-3
Формат/Информация                        : Audio Coding 3
Расширение режима                        : CM (complete main)
Режим смешивания                         : DVD-Video
Продолжительность                        : 19 м.
Вид битрейта                             : Постоянный
Битрейт                                  : 384 Кбит/сек
Каналы                                   : 6 каналов
Расположение каналов                     : Front: L C R, Side: L R, LFE
Частота                                  : 48,0 КГц
Битовая глубина                          : 16 бит
Метод сжатия                             : С потерями
Размер потока                            : 53,5 Мбайт (5%)
Аудио #2
Идентификатор                            : 189 (0xBD)-129 (0x81)
Формат                                   : AC-3
Формат/Информация                        : Audio Coding 3
Расширение режима                        : CM (complete main)
Режим смешивания                         : DVD-Video
Продолжительность                        : 19 м.
Вид битрейта                             : Постоянный
Битрейт                                  : 384 Кбит/сек
Каналы                                   : 6 каналов
Расположение каналов                     : Front: L C R, Side: L R, LFE
Частота                                  : 48,0 КГц
Битовая глубина                          : 16 бит
Метод сжатия                             : С потерями
Размер потока                            : 53,5 Мбайт (5%)
Аудио #3
Идентификатор                            : 189 (0xBD)-138 (0x8A)
Формат                                   : DTS
Формат/Информация                        : Digital Theater Systems
Режим смешивания                         : DVD-Video
Продолжительность                        : 19 м.
Вид битрейта                             : Постоянный
Битрейт                                  : 755 Кбит/сек
Каналы                                   : 6 каналов
Расположение каналов                     : Front: L C R, Side: L R, LFE
Частота                                  : 48,0 КГц
Битовая глубина                          : 24 бит
Метод сжатия                             : С потерями
Размер потока                            : 105 Мбайт (10%)

DVDInfo

Код:
Title: Бесстрашный
Size: 7.21 Gb ( 7 556 422,00 KBytes ) - DVD-9
Enabled regions: 2, 5
VTS_01 :
  Play Length: 00:00:23
  Video: PAL 4:3 (720x576) VBR
VTS_02 :
  Play Length: 00:00:35
  Video: PAL 16:9 (720x576) VBR, Auto Pan&Scan, Auto Letterboxed
  Audio:
      English (Dolby AC3, 6 ch)
VTS_03 :
  Play Length: 00:16:03
  Video: PAL 16:9 (720x576) VBR, Auto Pan&Scan, Auto Letterboxed
  Audio:
      Russian (Dolby AC3, 2 ch)
      English (Dolby AC3, 2 ch)
VTS_04 :
  Play Length: 00:06:42
  Video: PAL 16:9 (720x576) VBR, Auto Pan&Scan, Auto Letterboxed
  Audio:
      Not specified (Dolby AC3, 2 ch)
VTS_05 :
  Play Length: 00:29:50
  Video: PAL 16:9 (720x576) VBR, Auto Pan&Scan, Auto Letterboxed
  Audio:
      Not specified (Dolby AC3, 2 ch)
VTS_06 :
  Play Length: 00:02:06
  Video: PAL 4:3 (720x576) VBR
  Audio:
      Russian (Dolby AC3, 2 ch)
VTS_07 :
  Play Length: 00:02:12
  Video: PAL 4:3 (720x576) VBR
  Audio:
      Not specified (Dolby AC3, 2 ch)
VTS_08 :
  Play Length: 00:02:24
  Video: PAL 4:3 (720x576) VBR
  Audio:
      Not specified (Dolby AC3, 2 ch)
VTS_09 :
  Play Length: 00:02:18
  Video: PAL 16:9 (720x576) VBR, Auto Pan&Scan, Auto Letterboxed
  Audio:
      Not specified (Dolby AC3, 2 ch)
VTS_10 :
  Play Length: 00:02:33
  Video: PAL 4:3 (720x576) VBR
  Audio:
      Not specified (Dolby AC3, 2 ch)
VTS_11 :
  Play Length: 01:39:19
  Video: PAL 16:9 (720x576) VBR, Auto Pan&Scan, Auto Letterboxed
  Audio:
      Russian, AC3, 3/2 (L,C,R,SL,SR)+LFE ch, 384 kbps, Delay 0 mSec
      Chinese, AC3, 3/2 (L,C,R,SL,SR)+LFE ch, 384 kbps, Delay 0 mSec
      Russian, DTS, 3/2 (L,C,R,SL,SR), 768 kbps, Delay 0 mSec
  Subtitles:
      Russian
      Ukrainian

Скриншоты Меню

     

Скриншоты

       
Other forum [Profile] [PM]
Display posts from previous:    
Reply to topic

The time now is: Today 02:06

All times are GMT + 3 Hours



You cannot post new topics in this forum
You cannot reply to topics in this forum
You cannot edit your posts in this forum
You cannot delete your posts in this forum
You cannot vote in polls in this forum
You cannot attach files in this forum
You cannot download files in this forum