Today is a free download without charge Download

Миссия невыполнима: Протокол Фантом - Mission: Impossible - Ghost Protocol (Брэд Бёрд / Brad Bird, 2011) [1080p] BDRip

Reply to topic
 
Author
Message

Omen ®

Longevity: 8 years 5 months

Posts: 181087

Торрент-статистика

Post 03-Apr-2012 22:41

[Quote]

Миссия невыполнима: Протокол Фантом
Mission: Impossible - Ghost Protocol
-«Плана нет. Помощи нет. Выбора нет.»-
Русское название: Миссия невыполнима: Протокол Фантом
Оригинальное название: Mission: Impossible - Ghost Protocol
Страна производства: США, ОАЭ
Год выпуска: 2011
Жанр: Боевик, Триллер, Приключения
Описание фильма:
Специальный агент отряда «Миссия невыполнима» Итан Хант и его коллеги несправедливо обвинены в причастности к взрыву Кремля. Президент инициирует «Протокол Фантом», в результате которого спецподразделение ликвидировано, и Итан остается без какой-либо поддержки. Он намерен очистить свое доброе имя и предотвратить новую атаку, но делать это ему придется вместе с командой коллег, истинных мотивов которых он до конца не знает.
Режиссер: Брэд Бёрд / Brad Bird
Актеры: Том Круз, Пола Пэттон, Саймон Пегг, Джереми Реннер, Микаэл Нюквист, Владимир Машков, Самули Эдельманн, Иван Шведов, Анил Капур, Леа Сейду
Продолжительность: 02:12:59
Перевод: Дублированный [Лицензия]
Язык субтитров: Английский (forced), Английский (full), Английский (SDH)

Видеокодек: MPEG-4 AVC/H.264
Битрейт видео: ~8769 kbps
Размер кадра: 1920 x 800
Качество видео: BDRip
Аудиокодек: AC3 5.1
Аудио 1: Русский, AC3 5.1, 448 kbps, 48 kHz
Аудио 2: Английский, AC3 5.1, 640 kbps, 48 kHz-

MediaInfo:

Код:
Общее
Уникальный идентификатор         : 178755046463906365846154062576625159276 (0x867AF83C42EEFDC7B91BE6C359848C6C)
Полное имя                       : Mission.Impossible.Ghost.Protocol.2011.1080p.BDRip.mkv
Формат                           : Matroska
Версия формата                   : Version 2
Размер файла                     : 9,14 Гбайт
Продолжительность                : 2 ч. 12 м.
Общий поток                      : 9847 Кбит/сек
Дата кодирования                 : UTC 2012-04-03 15:13:55
Программа кодирования            : mkvmerge v5.2.0 ('I can't explain') built on Dec 18 2011 18:12:03
Библиотека кодирования           : libebml v1.2.3 + libmatroska v1.3.0
Видео
Идентификатор                    : 1
Формат                           : AVC
Формат/Информация                : Advanced Video Codec
Профиль формата                  : [url=mailto:[email protected]][email protected][/url]
Параметр CABAC формата           : Да
Параметр ReFrames формата        : 5 кадров
Идентификатор кодека             : V_MPEG4/ISO/AVC
Продолжительность                : 2 ч. 12 м.
Битрейт                          : 8769 Кбит/сек
Ширина                           : 1920 пикселей
Высота                           : 800 пикселей
Соотношение сторон               : 2,40:1
Частота кадров                   : 23,976 кадра/сек
Цветовое пространство            : YUV
Субдискретизация насыщенности    : 4:2:0
Битовая глубина                  : 8 бит
Тип развёртки                    : Прогрессивная
Бит/(Пиксели*Кадры)              : 0.238
Размер потока                    : 7,95 Гбайт (87%)
Библиотека кодирования           : x264 core 122 r2184 5c85e0a
Настройки программы              : cabac=1 / ref=5 / deblock=1:0:0 / analyse=0x3:0x133 / me=umh / subme=8 / psy=1 / psy_rd=1.00:0.00 / mixed_ref=1 / me_range=16 / chroma_me=1 / trellis=1 / 8x8dct=1 / cqm=0 / deadzone=21,11 / fast_pskip=1 / chroma_qp_offset=-2 / threads=24 / sliced_threads=0 / nr=0 / decimate=1 / interlaced=0 / bluray_compat=0 / constrained_intra=0 / bframes=3 / b_pyramid=2 / b_adapt=1 / b_bias=0 / direct=1 / weightb=1 / open_gop=0 / weightp=2 / keyint=250 / keyint_min=23 / scenecut=40 / intra_refresh=0 / rc=2pass / mbtree=0 / bitrate=8769 / ratetol=1.0 / qcomp=0.60 / qpmin=0 / qpmax=69 / qpstep=4 / cplxblur=20.0 / qblur=0.5 / ip_ratio=1.40 / pb_ratio=1.30 / aq=1:1.00
Язык                             : English
Default                          : Да
Forced                           : Нет
Аудио #1
Идентификатор                    : 2
Формат                           : AC-3
Формат/Информация                : Audio Coding 3
Расширение режима                : CM (complete main)
Идентификатор кодека             : A_AC3
Продолжительность                : 2 ч. 12 м.
Вид битрейта                     : Постоянный
Битрейт                          : 448 Кбит/сек
Каналы                           : 6 каналов
Расположение каналов             : Front: L C R, Side: L R, LFE
Частота                          : 48,0 КГц
Битовая глубина                  : 16 бит
Метод сжатия                     : С потерями
Размер потока                    : 426 Мбайт (5%)
Заголовок                        : DUB R5
Язык                             : Russian
Default                          : Да
Forced                           : Нет
Аудио #2
Идентификатор                    : 3
Формат                           : AC-3
Формат/Информация                : Audio Coding 3
Расширение режима                : CM (complete main)
Идентификатор кодека             : A_AC3
Продолжительность                : 2 ч. 12 м.
Вид битрейта                     : Постоянный
Битрейт                          : 640 Кбит/сек
Каналы                           : 6 каналов
Расположение каналов             : Front: L C R, Side: L R, LFE
Частота                          : 48,0 КГц
Битовая глубина                  : 16 бит
Метод сжатия                     : С потерями
Размер потока                    : 609 Мбайт (6%)
Заголовок                        : Original
Язык                             : English
Default                          : Нет
Forced                           : Нет
Текст #1
Идентификатор                    : 4
Формат                           : UTF-8
Идентификатор кодека             : S_TEXT/UTF8
Идентификатор кодека/Информация  : UTF-8 Plain Text
Заголовок                        : Forced
Язык                             : English
Default                          : Нет
Forced                           : Нет
Текст #2
Идентификатор                    : 5
Формат                           : UTF-8
Идентификатор кодека             : S_TEXT/UTF8
Идентификатор кодека/Информация  : UTF-8 Plain Text
Заголовок                        : Full
Язык                             : English
Default                          : Нет
Forced                           : Нет
Текст #3
Идентификатор                    : 6
Формат                           : UTF-8
Идентификатор кодека             : S_TEXT/UTF8
Идентификатор кодека/Информация  : UTF-8 Plain Text
Заголовок                        : SDH
Язык                             : English
Default                          : Нет
Forced                           : Нет
-Скриншоты:
         


Last edited by Omen on 2012-04-03 22:54; edited 2 times in total
Other forum [Profile] [PM]
Display posts from previous:    
Reply to topic

The time now is: Today 12:47

All times are GMT + 3 Hours



You cannot post new topics in this forum
You cannot reply to topics in this forum
You cannot edit your posts in this forum
You cannot delete your posts in this forum
You cannot vote in polls in this forum
You cannot attach files in this forum
You cannot download files in this forum