Today is a free download without charge Download

Поймай меня, если сможешь / Catch Me If You Can [ Стивен Спилберг (2002) драма, комедия, криминал, биография, HDTVRip 1080p ]

Reply to topic
 
Author
Message

Delia ®

Gender:

Longevity: 11 years

Posts: 1821

Торрент-статистика

Post 03-Apr-2012 10:41

[Quote]

Поймай меня, если сможешь / Catch Me If You Can«Правдивая история о реальном преступнике»--
Год выпуска: 2002
Страна: США , Канада
Жанр: драма, комедия, криминал, биография, ...
Продолжительность: 02:20:41
Перевод: Профессиональный (дублированный)
Режиссер: Стивен Спилберг
Сценарий: Джефф Натансон, Фрэнк Эбегнейл мл., Стэн Реддинг
Продюсер: Уолтер Ф. Паркс, Стивен Спилберг, Бэрри Кемп, ...
Оператор: Януш Камински
Композитор: Джон Уильямс
Художник: Жаннин Клаудия Оппуолл, Сара Ноулз, Мэри Зофрис, ...
Монтаж: Майкл Кан- В ролях: Леонардо ДиКаприо (Leonardo DiCaprio), Том Хэнкс (Tom Hanks), Кристофер Уокен (Christopher Walken), Мартин Шин (Martin Sheen), Натали Бэй (Nathalie Baye), Эми Адамс (Amy Adams), Джеймс Бролин (James Brolin), Брайан Хау (Brian Howe), Фрэнк Джон Хьюз (Frank John Hughes), Стив Истин (Steve Eastin), Крис Эллис (Chris Ellis), Джон Финн (John Finn), Дженнифер Гарнер (Jennifer Garner), Нэнси Ленехан (Nancy Lenehan), Эллен Помпео (Ellen Pompeo), Элизабет Бэнкс (Elizabeth Banks), Ги Товетт (Guy Thauvette), Кэндис Аззара (Candice Azzara), Мэттью Кимбро (Matthew Kimbrough), Джошуа Бойд (Joshua Boyd)
Описание: Фрэнк Эбегнейл успел поработать врачом, адвокатом и пилотом на пассажирской авиалинии — и все это до достижения полного совершеннолетия в 21 год. Мастер в обмане и жульничестве, он также обладал искусством подделки документов, что в конечном счете принесло ему миллионы долларов, которые он получил по фальшивым чекам.Агент ФБР Карл Хэнрэтти отдал бы все, чтобы схватить Фрэнка и привлечь к ответственности за свои деяния, но Фрэнк всегда опережает его на шаг, заставляя продолжать погоню.-Рейтинг MPAA: -- --Качество: HDTVRip
Формат: MKV
Видео кодек: H.264 (AVC)
Аудио кодеk: AC3
Видео: 1920x1072 (16:9), 25.000 fps, AVC, 6 720 Kbps
Аудио: : AC3, 384 Kbps, 48.0 KHz, 6 ch RUS Dub
Отдельно На народ.ру :
1)Russian 48 kHz, AC3, 5.1, 384.00 kbps Двухголосый закадровый
2)Russian 48 kHz, AC3, 5.1, 384.00 kbps Одноголосый закадровый, Ю.Живов
3)Ukrainian 48 kHz, AC3, 5.1, 384.00 kbps Многоголосый закадровый
4)English 48 kHz, AC3, 5.1, 384.00 kbps Оригинал

МедиаИнфо

Код:
General
Complete name                    : Catch Me If You Can (2002)HDTVRip1080р-F.HD.mkv
Format                           : Matroska
File size                        : 6.70 GiB
Duration                         : 2h 20mn
Overall bit rate                 : 6 814 Kbps
Encoded date                     : UTC 2012-04-03 05:25:15
Writing application              : mkvmerge v5.4.0 ('Piper') built on Mar 10 2012 13:34:39
Writing library                  : libebml v1.2.3 + libmatroska v1.3.0
Video
ID                               : 1
Format                           : AVC
Format/Info                      : Advanced Video Codec
Format profile                   : [email protected]
Format settings, CABAC           : Yes
Format settings, ReFrames        : 4 frames
Muxing mode                      : Container [email protected]
Codec ID                         : V_MPEG4/ISO/AVC
Duration                         : 2h 20mn
Bit rate                         : 6 294 Kbps
Nominal bit rate                 : 6 720 Kbps
Width                            : 1 920 pixels
Height                           : 1 072 pixels
Display aspect ratio             : 16:9
Frame rate                       : 25.000 fps
Color space                      : YUV
Chroma subsampling               : 4:2:0
Bit depth                        : 8 bits
Scan type                        : Progressive
Bits/(Pixel*Frame)               : 0.122
Stream size                      : 6.19 GiB (92%)
Title                            : FREEISLAND
Writing library                  : x264 core 122 r2184 5c85e0a
Encoding settings                : cabac=1 / ref=4 / deblock=1:-3:-2 / analyse=0x3:0x113 / me=umh / subme=10 / psy=1 / psy_rd=1.00:0.10 / mixed_ref=1 / me_range=32 / chroma_me=1 / trellis=2 / 8x8dct=1 / cqm=0 / deadzone=21,11 / fast_pskip=0 / chroma_qp_offset=-3 / threads=6 / sliced_threads=0 / nr=0 / decimate=0 / interlaced=0 / bluray_compat=0 / constrained_intra=0 / bframes=7 / b_pyramid=2 / b_adapt=2 / b_bias=0 / direct=3 / weightb=1 / open_gop=0 / weightp=2 / keyint=250 / keyint_min=23 / scenecut=40 / intra_refresh=0 / rc=2pass / mbtree=0 / bitrate=6720 / ratetol=1.0 / qcomp=0.70 / qpmin=10 / qpmax=51 / qpstep=4 / cplxblur=20.0 / qblur=0.5 / ip_ratio=1.40 / pb_ratio=1.20 / aq=1:0.90
Color primaries                  : BT.709-5, BT.1361, IEC 61966-2-4, SMPTE RP177
Transfer characteristics         : BT.709-5, BT.1361
Matrix coefficients              : BT.709-5, BT.1361, IEC 61966-2-4 709, SMPTE RP177
Audio
ID                               : 2
Format                           : AC-3
Format/Info                      : Audio Coding 3
Mode extension                   : CM (complete main)
Codec ID                         : A_AC3
Duration                         : 2h 20mn
Bit rate mode                    : Constant
Bit rate                         : 384 Kbps
Channel(s)                       : 6 channels
Channel positions                : Front: L C R, Side: L R, LFE
Sampling rate                    : 48.0 KHz
Bit depth                        : 16 bits
Stream size                      : 386 MiB (6%)
Language                         : Russian
Menu
00:00:00.000                     : en:Chapter 01
00:04:30.179                     : en:Chapter 02
00:10:31.140                     : en:Chapter 03
00:17:47.170                     : en:Chapter 04
00:24:51.000                     : en:Chapter 05
00:27:45.179                     : en:Chapter 06
00:32:34.140                     : en:Chapter 07
00:37:00.140                     : en:Chapter 08
00:40:24.140                     : en:Chapter 09
00:47:03.190                     : en:Chapter 10
00:54:33.030                     : en:Chapter 11
01:01:04.100                     : en:Chapter 12
01:07:11.240                     : en:Chapter 13
01:19:02.120                     : en:Chapter 14
01:28:21.240                     : en:Chapter 15
01:34:22.130                     : en:Chapter 16
01:39:16.070                     : en:Chapter 17
01:45:18.050                     : en:Chapter 18
01:53:09.040                     : en:Chapter 19
01:58:55.030                     : en:Chapter 20
02:07:05.209                     : en:Chapter 21
02:10:22.150                     : en:Chapter 22
02:14:54.150                     : en:Chapter 23

Знаете ли Вы, что...

» Сам Фрэнк Эбегнейл мл. сыграл в этом фильме эпизодическую роль одного из французских полицейских, которые поймали его.
» В сцене, где банкноты показываются крупным планом, можно заметить, что они образца 1996 года, хотя по сюжету действие происходит в 1967 году.
» Несколько раз крупным планом показаны лица героев, говорящих по телефону. При этом заметно, что трубка прикреплена к проводу современным штекером RJ-11 (registered jack).
» Некоторые сцены были специально досняты, пересняты или изменены по запросу настоящего Фрэнка Эбегнейла мл.
» В фильме используется Aston Martin DB5. Это личный автомобиль Спилберга.
» Изначально Спилберг хотел, чтобы Фрэнка Эбегнейла мл. сыграл Джонни Депп.
» До Спилберга фильм предлагали снять Гору Вербински, Джеймсу Гандольфини (который, тем не менее, предпочел вернуться к работе над «Кланом Сопрано»), Дэвиду Финчеру, Кэмерону Кроу и Лассе Халльстрёму.
» В фильме Фрэнк Эбегнейл мл. был изображен как единственный ребенок в семье. В действительности он был одним из 4 детей.
» Карл Хэнрэтти (изображаемый Томом Хэнксом) основан на агенте ФБР Джо Шей. В сценарии герой упоминался как Джо Шей, но был изменен на Карла Хэнрэтти по неизвестным причинам.


Скриншоты

     
     

_________________
Человек – это канат, натянутый между животным и сверхчеловеком, – канат над пропастью.
В человеке ценно то, что он мост, а не цель. Фридрих Ницше


Last edited by Delia on 2012-04-03 22:38; edited 1 time in total
Other forum [Profile] [PM]

Delia ®

Gender:

Longevity: 11 years

Posts: 1821

Торрент-статистика

Post 03-Apr-2012 22:37 (after 11 hours)

[Quote]

субтитры русские, английские на народ.ру

_________________
Человек – это канат, натянутый между животным и сверхчеловеком, – канат над пропастью.
В человеке ценно то, что он мост, а не цель. Фридрих Ницше
Other forum [Profile] [PM]
Similar theme
Forum Topic Author Torrent Replies Last Post
./templates/default/images/folder_dl.gif Психология, Тренинг, Саморазвитие Александр Свияш | Как разумные люди создают безумный мир. Негативные эмоции. Поймать и обезвредить (2018) [PDF] }{@R0N
1 | 0

0 | 2350

2

2019-03-17 22:54
}{@R0N Latest
Display posts from previous:    
Reply to topic

The time now is: Today 04:47

All times are GMT + 3 Hours



You cannot post new topics in this forum
You cannot reply to topics in this forum
You cannot edit your posts in this forum
You cannot delete your posts in this forum
You cannot vote in polls in this forum
You cannot attach files in this forum
You cannot download files in this forum