Today is a free download without charge Download

Не Любо - Не Слушай (Леонид Носырев) [1977 г., мультфильм, DVB]

Reply to topic
 
Author
Message

Omen ®

Longevity: 7 years 11 months

Posts: 181087

Торрент-статистика

Post 27-Mar-2015 21:01

[Quote]

Не Любо - Не Слушай
Страна: СССР, Союзмультфильм
Жанр: мультфильм
Год выпуска: 1977
Продолжительность: 00:09:42
Режиссёр: Леонид Носырев
Описание: экранизация сказок Бориса Шергина и Степана Писахова. Включает в себя сюжеты "Вечные Льды" (жители Архангельска сдают в прокат приезжим вечные льдины, для катания по морю. Но некоторые получают бракованные льдины...) и "Морожены песни" ( В архангельском крае народные песни застывают на зимнем морозе, превращаясь в узоры. Прибывший в Архангельск иностранец отправляет мороженые песни за границу и устраивает концерт).
Доп. информация:

Трансляция спутникового канала:

Качество видео: DVB
Формат видео: MPEG-PS
Видео: MPEG2 Video, 720x576 (4:3), 25 fps, 4000 kbps
Аудио: MPEG Audiо, 2 сh, 48 kHz, 192 kbps

MediaInfo

General
Complete name : D:\Не любо - не слушай. (1977)_DVB by SLuMeP.mpg
Format : MPEG-PS
File size : 299 MiB
Duration : 9mn 42s
Overall bit rate mode : Variable
Overall bit rate : 4 304 Kbps
Video
ID : 224 (0xE0)
Format : MPEG Video
Format version : Version 2
Format profile : [email protected]
Format settings, BVOP : No
Format settings, Matrix : Custom
Format settings, GOP : M=3, N=12
Duration : 9mn 42s
Bit rate mode : Variable
Bit rate : 4 027 Kbps
Maximum bit rate : 5 000 Kbps
Width : 720 pixels
Height : 576 pixels
Display aspect ratio : 4:3
Frame rate : 25.000 fps
Standard : PAL
Color space : YUV
Chroma subsampling : 4:2:0
Bit depth : 8 bits
Scan type : Interlaced
Scan order : Top Field First
Compression mode : Lossy
Bits/(Pixel*Frame) : 0.388
Time code of first frame : 00:00:00:00
Time code source : Group of pictures header
Stream size : 280 MiB (94%)
Audio
ID : 192 (0xC0)
Format : MPEG Audio
Format version : Version 1
Format profile : Layer 2
Duration : 9mn 42s
Bit rate mode : Constant
Bit rate : 192 Kbps
Channel(s) : 2 channels
Sampling rate : 48.0 KHz
Compression mode : Lossy
Stream size : 13.3 MiB (4%)

Скриншоты


Other forum [Profile] [PM]
Display posts from previous:    
Reply to topic

The time now is: Today 16:19

All times are GMT + 3 Hours



You cannot post new topics in this forum
You cannot reply to topics in this forum
You cannot edit your posts in this forum
You cannot delete your posts in this forum
You cannot vote in polls in this forum
You cannot attach files in this forum
You cannot download files in this forum