Today is a free download without charge Download

Жил у бабушки козел (Леонид Носырев) [1983 г., мультфильм, DVB]

Reply to topic
 
Author
Message

Omen ®

Longevity: 7 years 11 months

Posts: 181087

Торрент-статистика

Post 27-Mar-2015 21:00

[Quote]

Жил у бабушки козел
Страна: СССР, Союзмультфильм
Жанр: мультфильм
Год выпуска: 1983
Продолжительность: 00:09:04
Режиссёр: Леонид Носырев
Описание: мультфильм о том, как жил бабушки Козёл. Он и за водой ходил, и дрова рубил, и в доме прибирал. А когда отправился в лес по грибы заблудился ...
Доп. информация: по мотивам русской народной сказки в обработке Корнея Чуковского.

Трансляция спутникового канала:

Качество видео: DVB
Формат видео: MPEG-PS
Видео: MPEG2 Video, 720x576 (4:3), 25 fps, 3700 kbps
Аудио: MPEG Audiо, 2 сh, 48 kHz, 192 kbps

MediaInfo

General
Complete name : D:\Жил у бабушки козёл. (1983)_DVB by SLuMeP.mpg
Format : MPEG-PS
File size : 260 MiB
Duration : 9mn 4s
Overall bit rate mode : Variable
Overall bit rate : 4 002 Kbps
Video
ID : 224 (0xE0)
Format : MPEG Video
Format version : Version 2
Format profile : [email protected]
Format settings, BVOP : No
Format settings, Matrix : Custom
Format settings, GOP : M=3, N=12
Duration : 9mn 4s
Bit rate mode : Variable
Bit rate : 3 731 Kbps
Maximum bit rate : 5 000 Kbps
Width : 720 pixels
Height : 576 pixels
Display aspect ratio : 4:3
Frame rate : 25.000 fps
Standard : PAL
Color space : YUV
Chroma subsampling : 4:2:0
Bit depth : 8 bits
Scan type : Interlaced
Scan order : Top Field First
Compression mode : Lossy
Bits/(Pixel*Frame) : 0.360
Time code of first frame : 00:00:00:00
Time code source : Group of pictures header
Stream size : 242 MiB (93%)
Audio
ID : 192 (0xC0)
Format : MPEG Audio
Format version : Version 1
Format profile : Layer 2
Duration : 9mn 4s
Bit rate mode : Constant
Bit rate : 192 Kbps
Channel(s) : 2 channels
Sampling rate : 48.0 KHz
Compression mode : Lossy
Stream size : 12.5 MiB (5%)

Скриншоты


Other forum [Profile] [PM]
Display posts from previous:    
Reply to topic

The time now is: Today 06:58

All times are GMT + 3 Hours



You cannot post new topics in this forum
You cannot reply to topics in this forum
You cannot edit your posts in this forum
You cannot delete your posts in this forum
You cannot vote in polls in this forum
You cannot attach files in this forum
You cannot download files in this forum