Today is a free download without charge Download

Волшебная палочка (Зинаида Брумберг, Валентина Брумберг) [1972, Рисованный мультфильм, DVDRip]

Reply to topic
 
Author
Message

Omen ®

Longevity: 7 years 11 months

Posts: 181087

Торрент-статистика

Post 27-Mar-2015 21:00

[Quote]

Волшебная палочка
Страна: СССР
Жанр: Рисованный мультфильм
Продолжительность: 00:15:39
Год выпуска: 1972
Русские субтитры: нет
Режиссёр: Зинаида Брумберг, Валентина Брумберг
Описание: Каждый из нас в детстве задавался вопросом: "А что бы я сделал, если бы у меня была волшебная палочка?"
Теперь у Вас есть возможность, взглянуть на желания других.
Доп. информация: Производство: «Союзмультфильм».
Автор сценария: Л.Завальнюк
Художник-постановник: Т.Сазонова
Композитор: Ю.Саульский
Кинооператор: Б.Котов
Звукооператор: Г.Мартынюк
Рип и синхронизация звука dvdss
Качество: DVDRip
Формат: AVI
Видео: 704x528 (1.33:1), 25 fps, XviD 65 ~2297 kbps avg, 0.25 bit/pixel
Аудио: 48 kHz, AC3 Dolby Digital, 3/2 (L,C,R,l,r) + LFE ch, ~384.00 kbps avg
Субтитры: нет

Подробные технические данные

Format : AVIFormat/Info : Audio Video InterleaveFile size : 301 MiBDuration : 15mn 39sOverall bit rate : 2 691 KbpsWriting application : VirtualDubModRus 1.5.10.2 (build 2542/release)Copyright : Rutracker.orgComment : RG Multfilms by dvdss
VideoID : 0Format : MPEG-4 VisualFormat profile : Advanced [email protected] settings, BVOP : 2Format settings, QPel : NoFormat settings, GMC : No warppointsFormat settings, Matrix : CustomCodec ID : XVIDCodec ID/Hint : XviDDuration : 15mn 39sBit rate : 2 297 KbpsWidth : 704 pixelsHeight : 528 pixelsDisplay aspect ratio : 5:4Original display aspect ratio : 4:3Frame rate : 25.000 fpsColor space : YUVChroma subsampling : 4:2:0Bit depth : 8 bitsScan type : ProgressiveCompression mode : LossyBits/(Pixel*Frame) : 0.247Stream size : 257 MiB (85%)Writing library : XviD 65
AudioID : 1Format : AC-3Format/Info : Audio Coding 3Mode extension : CM (complete main)Format settings, Endianness : BigCodec ID : 2000Duration : 15mn 39sBit rate mode : ConstantBit rate : 384 KbpsChannel(s) : 6 channelsChannel positions : Front: L C R, Side: L R, LFESampling rate : 48.0 KHzBit depth : 16 bitsCompression mode : LossyDelay relative to video : 2s 16msStream size : 43.0 MiB (14%)Alignment : Split accross interleavesInterleave, duration : 40 ms (1.00 video frame)Interleave, preload duration : 500 ms

Скриншоты

Other forum [Profile] [PM]
Display posts from previous:    
Reply to topic

The time now is: Today 05:13

All times are GMT + 3 Hours



You cannot post new topics in this forum
You cannot reply to topics in this forum
You cannot edit your posts in this forum
You cannot delete your posts in this forum
You cannot vote in polls in this forum
You cannot attach files in this forum
You cannot download files in this forum