Today is a free download without charge Download

Про верблюжонка (Борис Аблынин) [1985, Кукольный мультфильм, DVDRip]

Reply to topic
 
Author
Message

Omen ®

Longevity: 7 years 11 months

Posts: 181087

Торрент-статистика

Post 27-Mar-2015 00:00

[Quote]

Про верблюжонка
Страна: СССР
Жанр: Кукольный мультфильм
Продолжительность: 00:09:16
Год выпуска: 1987
Русские субтитры: нет
Режиссёр: Борис Аблынин
Описание: Кукольный мультфильм, основанный на реальных событиях, о происшествии, произошедшим на станции Байконур. Маленький верблюжонок гулял по степи, общался с песчаными обитателями и случайно забрел в запретную зону на станции Байконур. Чтобы не допустить гибели попавшего в беду "корабля пустыни", пришлось отменить запуск корабля космического...
Доп. информация: Производство: «Союзмультфильм».
Раздача группы:
Рип Itartass
Качество: DVDRip
Формат: AVI
Видео: 704x528 (1.33:1), 25 fps, XviD MPEG-4 ~1654 kbps avg, 0.18 bit/pixel
Аудио: 48 kHz, AC3 Dolby Digital, 2/0 (L,R) ch, ~192.00 kbps avg
Субтитры: нет

Подробные технические данные

VideoID : 0Format : MPEG-4 VisualFormat profile : Advanced [email protected] settings, BVOP : 1Format settings, QPel : NoFormat settings, GMC : No warppointsFormat settings, Matrix : Default (H.263)Muxing mode : Packed bitstreamCodec ID : XVIDCodec ID/Hint : XviDDuration : 9mn 16sBit rate : 1 654 KbpsWidth : 704 pixelsHeight : 528 pixelsDisplay aspect ratio : 4:3Frame rate : 25.000 fpsColor space : YUVChroma subsampling : 4:2:0Bit depth : 8 bitsScan type : ProgressiveCompression mode : LossyBits/(Pixel*Frame) : 0.178Stream size : 110 MiB (89%)Writing library : XviD 1.2.1 (UTC 2008-12-04)
AudioID : 1Format : AC-3Format/Info : Audio Coding 3Mode extension : CM (complete main)Format settings, Endianness : BigCodec ID : 2000Duration : 9mn 16sBit rate mode : ConstantBit rate : 192 KbpsChannel(s) : 2 channelsChannel positions : Front: L RSampling rate : 48.0 KHzBit depth : 16 bitsCompression mode : LossyStream size : 12.7 MiB (10%)Alignment : Aligned on interleavesInterleave, duration : 200 ms (5.00 video frames)Language : Не определен

Скриншоты

Other forum [Profile] [PM]
Display posts from previous:    
Reply to topic

The time now is: Today 05:57

All times are GMT + 3 Hours



You cannot post new topics in this forum
You cannot reply to topics in this forum
You cannot edit your posts in this forum
You cannot delete your posts in this forum
You cannot vote in polls in this forum
You cannot attach files in this forum
You cannot download files in this forum