Today is a free download without charge Download

Тайна третьей планеты (Роман Качанов) [1981, DVDRip]

Reply to topic
 
Author
Message

NarDok ®

Longevity: 8 years 9 months

Posts: 914

Торрент-статистика

Post 26-Mar-2015 22:50

[Quote]

Тайна третьей планеты - Год выпуска: 1981
Производство: СССР / Союзмультфильм
Жанр: Мультфильм, Фантастика
Описание фильма:
Приключения девочки Алисы, ее ученого папы и меланхолика капитана Зеленого, а также добродушного чудовища Громозеки и птицы Говоруна, который, как известно, отличается умом и сообразительностью...
Режиссер: Роман Качанов
Актеры: Ольга Громова (Алиса Селезнева), Всеволод Ларионов (профессор Селезнев), Юрий Волынцев (Зеленый), Василий Ливанов (Громозека), Григорий Шпигель (Весельчак), Петр Вишняков (доктор Верховцев), Рина Зеленая (старая женщина), Игорь Ясулович, Юрий Андреев, Владимир Дружников, Владимир Кенигсон
Продолжительность: 00:47:34
Качество видео: DVDRip
Перевод: Не требуется (оригинальный)

Видеокодек: Xvid
Битрейт видео: ~1720 Кбит/сек
Размер кадра: 704x528
Аудиокодек: AC3 5.1
Битрейт аудио: 448 Кбит/сек

MediaInfo:

Общее
Формат : AVI
Формат/Информация : Audio Video Interleave
Размер файла : 741 Мбайт
Продолжительность : 47 м.
Общий поток : 2177 Кбит/сек
Программа кодирования : VirtualDubMod 1.5.10.3 | www.virtualdub-fr.org || (build 2550/release)
Библиотека кодирования : VirtualDub build 35491/release
Видео
Идентификатор : 0
Формат : MPEG-4 Visual
Профиль формата : Advanced [email protected]
Параметр BVOP формата : 1
Параметр QPel формата : Нет
Параметр GMC формата : Без точки перехода
Параметр матрицы формата : Выборочная
Идентификатор кодека : XVID
Идентификатор кодека/Подсказка : XviD
Продолжительность : 47 м.
Битрейт : 1720 Кбит/сек
Ширина : 704 пикселя
Высота : 528 пикселей
Соотношение сторон : 4:3
Частота кадров : 25,000 кадров/сек
Цветовое пространство : YUV
Субдискретизация насыщенности : 4:2:0
Битовая глубина : 8 бит
Тип развёртки : Прогрессивная
Метод сжатия : С потерями
Бит/(Пиксели*Кадры) : 0.185
Размер потока : 585 Мбайт (79%)
Библиотека кодирования : XviD 1.2.1 (UTC 2008-12-04)
Аудио
Идентификатор : 1
Формат : AC-3
Формат/Информация : Audio Coding 3
Расширение режима : CM (complete main)
Параметр Endianness формата : Big
Идентификатор кодека : 2000
Продолжительность : 47 м.
Вид битрейта : Постоянный
Битрейт : 448 Кбит/сек
Каналы : 6 каналов
Расположение каналов : Front: L C R, Side: L R, LFE
Частота : 48,0 КГц
Битовая глубина : 16 бит
Метод сжатия : С потерями
Размер потока : 152 Мбайт (21%)
Выравнивание : Разделение по промежуткам
Продолжительность промежутка : 40 мс. (1,00 видеокадр)
Время предзагрузки промежутка : 500 мс.
Скриншоты:        

_________________

Other forum [Profile] [PM]
Similar theme
Forum Topic Author Torrent Replies Last Post
./templates/default/images/folder_dl.gif Приключения и квесты Mystery Trackers: Blackrow\'s Secret Collector\'s Edition / Охотники за тайнами. Загадка рода Блэкроу. Коллекционное издание [P] [RUS / ENG] (2014) Omen
1 | 0

0 | 2405

27

2015-06-06 00:09
Omen Latest
Display posts from previous:    
Reply to topic

The time now is: Today 10:00

All times are GMT + 3 Hours



You cannot post new topics in this forum
You cannot reply to topics in this forum
You cannot edit your posts in this forum
You cannot delete your posts in this forum
You cannot vote in polls in this forum
You cannot attach files in this forum
You cannot download files in this forum