Today is a free download without charge Download

Матрица-Трилогия / The Matrix-Trilogy (Энди Вачовски / Andy Vachovski,Лана Вачовски / Lana Vachovski) [1999,2003 гг., Боевик,Фантастика, Blu-Ray]

Reply to topic
 
Author
Message

Стасмэн ®

Gender:

Longevity: 10 years

Posts: 133

Торрент-статистика

Post 02-Apr-2012 13:25

[Quote]

Матрица-Трилогия / The Matrix-Trilogy
Год выпуска: 1999,2003
Страна: США , Австралия
Жанр: Боевик,Фантастика
Продолжительность: 06:43:47
Перевод: Профессиональный(дублированный)
Режиссер: Энди Вачовски / Andy Vachovski,Лана Вачовски / Lana Vachovski
Продюссер: Джоэл Силвер, Брюс Берман, Лана Вачовски
Сценарий: Энди Вачовски, Лана Вачовски
Бюджет: $63 000 000,$150 000 000
Премьера в мире: 31 марта 1999,7 мая 2003,27 октября 2003
В ролях: Киану Ривз, Лоренс Фишбёрн, Кэрри-Энн Мосс, Хьюго Уивинг, Глория Фостер, Джо Пантольяно, Маркус Чонг, Джулиан Араханга, Мэтт Доран, Белинда МакКлори, Энтони Рэй Паркер, Пол Годдар, Роберт Тейлор, Дэвид Эстон, Марк Грэй, Ада Никодему, Денни Гордон, Роуэн Уитт, Эленор Уитт, Тамара Браун, Яная Пендер...
Качество: Blu-Ray
Формат: BDMV
Видео кодек: VC-1
Аудио кодек: Dolby Digital,Dolby TrueHD

Матрица

Матрица / The MatrixГод выпуска: 1999
Страна: США , Австралия
Жанр: Боевик,Фантастика
Продолжительность: 02:16:17
Перевод: Профессиональный (полное дублирование)
Режиссер: Энди Вачовски / Andy Vachovski,Лана Вачовски / Lana Vachovski
В ролях: Киану Ривз, Лоренс Фишбёрн, Кэрри-Энн Мосс, Хьюго Уивинг, Глория Фостер, Джо Пантольяно.....
Описание: Мир Матрицы — это иллюзия, существующая только в бесконечном сне обреченного человечества. Холодный мир будущего, в котором люди — всего лишь батарейки в компьютерных системах.

Качество: Blu-Ray
Формат: BDMV
Видео кодек: VC-1
Аудио кодек: Dolby Digital,Dolby TrueHD
Видео:
VC-1 Video / 16439 kbps / 1080p / 23,976 fps / 16:9 / Advanced Profile 3
* Video: VC-1 Video / 1745 kbps / 480p / 23,976 fps / 4:3 / Advanced Profile 2
Аудио:
Audio 1: English / Dolby Digital Audio / 5.1 / 48 kHz / 640 kbps / DN -4dB
Audio 2: English / Dolby TrueHD Audio / 5.1 / 48 kHz / 1646 kbps / 16-bit (AC3 Embedded: 5.1 / 48 kHz / 640 kbps / DN -4dB)
Audio 3: Czech / Dolby Digital Audio / 2.0 / 48 kHz / 192 kbps / DN -4dB
Audio 4: Hungarian / Dolby Digital Audio / 5.1 / 48 kHz / 640 kbps / DN -4dB
Audio 5: Polish / Dolby Digital Audio / 5.1 / 48 kHz / 640 kbps / DN -4dB
Audio 6: Russian / Dolby Digital Audio / 5.1 / 48 kHz / 640 kbps / DN -4dB
Audio 7: Thai / Dolby Digital Audio / 5.1 / 48 kHz / 640 kbps / DN -4dB
Audio 8: Turkish / Dolby Digital Audio / 2.0 / 48 kHz / 192 kbps / DN -4dB / Dolby Surround
Audio 9: English / Dolby Digital Audio / 2.0 / 48 kHz / 192 kbps / DN -4dB / Dolby Surround
Audio 10: English / Dolby Digital Audio / 2.0 / 48 kHz / 192 kbps / DN -4dB / Dolby Surround
Audio 11: English / Dolby Digital Audio / 2.0 / 48 kHz / 192 kbps / DN -4dB / Dolby Surround
Audio 12: English / Dolby Digital Audio / 2.0 / 48 kHz / 192 kbps / DN -4dB / Dolby Surround
* Audio: English / Dolby Digital Plus Audio / 2.0 / 48 kHz / 192 kbps

BDInfo

Код:
Disc Title:     Матрица.1999.Blu-ray
Disc Size:      40 443 665 265 bytes
Protection:     AACS
BD-Java:        Yes
BDInfo:         0.5.8
Notes:
BDINFO HOME:
  Cinema Squid
    http://www.cinemasquid.com/blu-ray/tools/bdinfo
INCLUDES FORUMS REPORT FOR:
  AVS Forum Blu-ray Audio and Video Specifications Thread
    http://www.avsforum.com/avs-vb/showthread.php?t=1155731
********************
PLAYLIST: 00000.MPLS
********************
<--- BEGIN FORUMS PASTE --->
[code]
                                                                                                                Total   Video
Title                                                           Codec   Length  Movie Size      Disc Size       Bitrate Bitrate Main Audio Track                          Secondary Audio Track
-----                                                           ------  ------- --------------  --------------  ------- ------- ------------------                        ---------------------
00000.MPLS                                                      VC-1    2:16:17 29 006 635 008  40 443 665 265  28,38   16,44   DD AC3 5.1 640Kbps                        Dolby TrueHD 5.1 1646Kbps (48kHz/16-bit)
Код:
DISC INFO:
Disc Title:     Матрица.1999.Blu-ray
Disc Size:      40 443 665 265 bytes
Protection:     AACS
BD-Java:        Yes
BDInfo:         0.5.8
PLAYLIST REPORT:
Name:                   00000.MPLS
Length:                 2:16:17.961 (h:m:s.ms)
Size:                   29 006 635 008 bytes
Total Bitrate:          28,38 Mbps
(*) Indicates included stream hidden by this playlist.
VIDEO:
Codec                   Bitrate             Description
-----                   -------             -----------
VC-1 Video              16439 kbps          1080p / 23,976 fps / 16:9 / Advanced Profile 3
* VC-1 Video            1745 kbps           480p / 23,976 fps / 4:3 / Advanced Profile 2
AUDIO:
Codec                           Language        Bitrate         Description
-----                           --------        -------         -----------
Dolby Digital Audio             English         640 kbps        5.1 / 48 kHz / 640 kbps / DN -4dB
Dolby TrueHD Audio              English         1646 kbps       5.1 / 48 kHz / 1646 kbps / 16-bit (AC3 Embedded: 5.1 / 48 kHz / 640 kbps / DN -4dB)
Dolby Digital Audio             Czech           192 kbps        2.0 / 48 kHz / 192 kbps / DN -4dB
Dolby Digital Audio             Hungarian       640 kbps        5.1 / 48 kHz / 640 kbps / DN -4dB
Dolby Digital Audio             Polish          640 kbps        5.1 / 48 kHz / 640 kbps / DN -4dB
Dolby Digital Audio             Russian         640 kbps        5.1 / 48 kHz / 640 kbps / DN -4dB
Dolby Digital Audio             Thai            640 kbps        5.1 / 48 kHz / 640 kbps / DN -4dB
Dolby Digital Audio             Turkish         192 kbps        2.0 / 48 kHz / 192 kbps / DN -4dB / Dolby Surround
Dolby Digital Audio             English         192 kbps        2.0 / 48 kHz / 192 kbps / DN -4dB / Dolby Surround
Dolby Digital Audio             English         192 kbps        2.0 / 48 kHz / 192 kbps / DN -4dB / Dolby Surround
Dolby Digital Audio             English         192 kbps        2.0 / 48 kHz / 192 kbps / DN -4dB / Dolby Surround
Dolby Digital Audio             English         192 kbps        2.0 / 48 kHz / 192 kbps / DN -4dB / Dolby Surround
* Dolby Digital Plus Audio      English         192 kbps        2.0 / 48 kHz / 192 kbps
SUBTITLES:
Codec                           Language        Bitrate         Description
-----                           --------        -------         -----------
Presentation Graphics           English         21,146 kbps
Presentation Graphics           Chinese         17,111 kbps
Presentation Graphics           Arabic          10,201 kbps
Presentation Graphics           Indonesian      24,139 kbps
Presentation Graphics           Bulgarian       19,430 kbps
Presentation Graphics           Croatian        18,580 kbps
Presentation Graphics           Czech           16,460 kbps
Presentation Graphics           Estonian        19,540 kbps
Presentation Graphics           Hebrew          15,924 kbps
Presentation Graphics           Hungarian       18,157 kbps
Presentation Graphics           Icelandic       20,947 kbps
Presentation Graphics           Latvian         18,734 kbps
Presentation Graphics           Polish          16,019 kbps
Presentation Graphics           Portuguese      21,595 kbps
Presentation Graphics           Romanian        18,177 kbps
Presentation Graphics           Russian         20,533 kbps
Presentation Graphics           Serbian         19,265 kbps
Presentation Graphics           Slovenian       18,455 kbps
Presentation Graphics           Thai            20,384 kbps
Presentation Graphics           Turkish         19,255 kbps
Presentation Graphics           Chinese         36,731 kbps
Presentation Graphics           Chinese         36,175 kbps
Presentation Graphics           Chinese         32,824 kbps
Presentation Graphics           Chinese         9,594 kbps
Presentation Graphics           Czech           0,204 kbps
Presentation Graphics           Hungarian       0,247 kbps
Presentation Graphics           Turkish         0,270 kbps
Presentation Graphics           English         47,925 kbps
* Presentation Graphics         Chinese         36,791 kbps
FILES:
Name            Time In         Length          Size            Total Bitrate
----            -------         ------          ----            -------------
00000.M2TS      0:00:00.000     2:16:17.961     29 006 635 008  28 375
CHAPTERS:
Number          Time In         Length          Avg Video Rate  Max 1-Sec Rate  Max 1-Sec Time  Max 5-Sec Rate  Max 5-Sec Time  Max 10Sec Rate  Max 10Sec Time  Avg Frame Size  Max Frame Size  Max Frame Time
------          -------         ------          --------------  --------------  --------------  --------------  --------------  --------------  --------------  --------------  --------------  --------------
1               0:00:00.000     0:03:25.788     16 456 kbps     30 417 kbps     00:00:53.094    21 439 kbps     00:01:17.452    20 171 kbps     00:03:08.354    86 142 bytes    499 208 bytes   00:01:17.660
2               0:03:25.788     0:03:09.856     15 438 kbps     25 979 kbps     00:03:51.940    21 626 kbps     00:03:48.102    19 371 kbps     00:05:02.552    80 488 bytes    267 503 bytes   00:05:27.744
3               0:06:35.645     0:03:07.020     15 553 kbps     29 862 kbps     00:07:45.047    21 167 kbps     00:06:46.531    19 800 kbps     00:08:20.833    81 089 bytes    353 227 bytes   00:06:50.535
4               0:09:42.665     0:02:15.635     18 406 kbps     25 882 kbps     00:11:02.411    20 957 kbps     00:09:56.971    19 910 kbps     00:11:35.820    95 962 bytes    247 876 bytes   00:09:43.749
5               0:11:58.300     0:04:49.122     17 358 kbps     27 014 kbps     00:12:31.125    21 465 kbps     00:14:16.564    19 881 kbps     00:14:16.564    90 498 bytes    301 933 bytes   00:12:04.223
6               0:16:47.423     0:04:46.119     18 328 kbps     29 826 kbps     00:17:12.990    21 372 kbps     00:18:22.392    20 057 kbps     00:16:50.217    95 551 bytes    299 055 bytes   00:17:22.624
7               0:21:33.542     0:03:35.048     17 049 kbps     30 769 kbps     00:24:37.142    21 422 kbps     00:22:46.823    20 202 kbps     00:21:39.840    88 884 bytes    315 396 bytes   00:24:37.392
8               0:25:08.590     0:03:42.555     15 581 kbps     29 602 kbps     00:25:45.126    20 901 kbps     00:28:13.566    19 547 kbps     00:28:13.566    81 232 bytes    250 335 bytes   00:28:39.300
9               0:28:51.146     0:03:34.047     16 221 kbps     26 291 kbps     00:32:07.008    20 620 kbps     00:29:57.337    19 953 kbps     00:31:08.241    84 567 bytes    278 556 bytes   00:32:07.842
10              0:32:25.193     0:02:56.676     16 557 kbps     27 973 kbps     00:32:36.037    21 152 kbps     00:34:22.435    19 865 kbps     00:32:43.753    86 321 bytes    249 529 bytes   00:33:01.896
11              0:35:21.869     0:03:19.032     15 315 kbps     25 584 kbps     00:37:24.283    20 931 kbps     00:38:10.496    19 983 kbps     00:38:09.328    79 846 bytes    279 677 bytes   00:35:45.726
12              0:38:40.901     0:05:41.674     16 146 kbps     30 080 kbps     00:40:59.748    21 209 kbps     00:44:04.642    19 935 kbps     00:42:18.577    84 178 bytes    303 011 bytes   00:41:00.040
13              0:44:22.576     0:02:10.964     16 737 kbps     25 996 kbps     00:46:19.610    21 158 kbps     00:45:34.815    19 457 kbps     00:46:15.689    87 257 bytes    306 280 bytes   00:46:19.860
14              0:46:33.540     0:02:24.310     15 955 kbps     27 228 kbps     00:48:43.879    19 996 kbps     00:46:39.087    18 321 kbps     00:46:34.082    83 180 bytes    251 846 bytes   00:48:44.254
15              0:48:57.851     0:04:33.439     16 811 kbps     27 958 kbps     00:51:06.772    21 064 kbps     00:51:21.745    19 678 kbps     00:48:57.851    87 644 bytes    285 035 bytes   00:51:07.147
16              0:53:31.291     0:03:00.847     16 205 kbps     28 678 kbps     00:53:39.674    21 473 kbps     00:54:57.377    20 240 kbps     00:54:57.544    84 483 bytes    323 305 bytes   00:53:39.966
17              0:56:32.138     0:02:29.149     15 558 kbps     23 353 kbps     00:57:10.552    21 364 kbps     00:57:57.849    19 628 kbps     00:57:57.849    81 114 bytes    313 560 bytes   00:57:54.971
18              0:59:01.287     0:02:07.293     16 992 kbps     25 385 kbps     00:59:23.142    20 964 kbps     00:59:02.705    19 705 kbps     01:00:03.057    88 587 bytes    253 330 bytes   01:00:01.931
19              1:01:08.581     0:04:07.914     14 105 kbps     26 733 kbps     01:03:42.026    21 294 kbps     01:03:40.858    19 033 kbps     01:03:39.565    73 536 bytes    305 685 bytes   01:03:42.652
20              1:05:16.495     0:02:30.316     17 528 kbps     25 591 kbps     01:07:00.057    21 025 kbps     01:05:33.888    20 279 kbps     01:06:43.958    91 382 bytes    279 723 bytes   01:07:46.479
21              1:07:46.812     0:04:46.619     17 639 kbps     25 625 kbps     01:12:24.548    20 626 kbps     01:10:36.982    20 208 kbps     01:10:32.519    91 963 bytes    319 159 bytes   01:08:07.416
22              1:12:33.432     0:05:16.149     17 365 kbps     24 393 kbps     01:16:55.485    20 567 kbps     01:16:53.066    19 867 kbps     01:17:12.377    90 534 bytes    270 634 bytes   01:15:03.999
23              1:17:49.581     0:03:13.526     16 965 kbps     24 954 kbps     01:19:41.985    21 290 kbps     01:20:18.772    19 969 kbps     01:17:50.040    88 447 bytes    335 648 bytes   01:18:29.788
24              1:21:03.108     0:04:02.242     16 696 kbps     28 087 kbps     01:22:17.641    21 093 kbps     01:23:55.238    19 951 kbps     01:23:34.801    87 043 bytes    264 464 bytes   01:23:33.550
25              1:25:05.350     0:04:39.779     17 169 kbps     26 347 kbps     01:26:41.821    20 728 kbps     01:27:52.642    19 675 kbps     01:27:49.889    89 510 bytes    262 684 bytes   01:25:46.599
26              1:29:45.129     0:01:42.435     15 463 kbps     24 729 kbps     01:30:46.732    19 913 kbps     01:30:23.251    18 918 kbps     01:30:22.375    80 618 bytes    219 308 bytes   01:29:46.798
27              1:31:27.565     0:05:57.690     17 636 kbps     25 310 kbps     01:34:02.386    21 700 kbps     01:32:08.731    20 109 kbps     01:32:05.394    91 944 bytes    314 578 bytes   01:34:03.971
28              1:37:25.256     0:03:39.719     16 782 kbps     24 066 kbps     01:39:10.569    20 630 kbps     01:39:06.148    20 136 kbps     01:39:01.435    87 492 bytes    300 485 bytes   01:39:04.438
29              1:41:04.975     0:03:15.361     17 545 kbps     27 203 kbps     01:42:22.719    21 088 kbps     01:42:43.907    20 124 kbps     01:42:38.277    91 473 bytes    290 848 bytes   01:44:11.161
30              1:44:20.337     0:02:40.159     15 737 kbps     31 811 kbps     01:44:39.940    21 275 kbps     01:46:48.235    19 810 kbps     01:46:43.230    82 068 bytes    411 680 bytes   01:44:40.691
31              1:47:00.497     0:03:18.031     17 191 kbps     27 568 kbps     01:48:43.141    21 700 kbps     01:49:58.383    19 504 kbps     01:48:32.005    89 626 bytes    255 019 bytes   01:48:43.350
32              1:50:18.528     0:02:38.157     16 945 kbps     27 543 kbps     01:51:16.461    21 576 kbps     01:51:12.957    19 768 kbps     01:50:50.518    88 342 bytes    272 948 bytes   01:51:26.179
33              1:52:56.686     0:03:40.220     16 895 kbps     28 799 kbps     01:54:15.390    21 539 kbps     01:56:22.767    19 690 kbps     01:56:22.809    88 083 bytes    310 031 bytes   01:54:28.862
34              1:56:36.906     0:02:12.465     16 700 kbps     24 776 kbps     01:58:38.694    21 070 kbps     01:56:48.960    19 951 kbps     01:56:43.788    87 069 bytes    305 861 bytes   01:57:43.973
35              1:58:49.372     0:03:38.051     16 792 kbps     28 327 kbps     01:59:23.114    21 291 kbps     01:58:52.458    19 920 kbps     01:59:07.890    87 545 bytes    271 503 bytes   02:02:19.874
36              2:02:27.423     0:03:14.360     15 331 kbps     29 948 kbps     02:05:37.071    21 001 kbps     02:05:36.570    19 588 kbps     02:05:31.357    79 931 bytes    563 917 bytes   02:05:37.530
37              2:05:41.784     0:03:05.018     15 199 kbps     30 791 kbps     02:08:04.093    21 184 kbps     02:08:33.247    19 211 kbps     02:08:36.792    79 274 bytes    344 870 bytes   02:08:04.176
38              2:08:46.802     0:07:31.159     13 394 kbps     29 097 kbps     02:16:11.246    19 463 kbps     02:09:14.121    19 071 kbps     02:08:54.268    69 941 bytes    325 324 bytes   02:14:15.464
STREAM DIAGNOSTICS:
File            PID             Type            Codec           Language                Seconds                 Bitrate                 Bytes           Packets
----            ---             ----            -----           --------                --------------          --------------          -------------   -----
00000.M2TS      4113 (0x1011)   0xEA            VC-1                                    8177,836                16 439                  16 804 451 399  91 446 226
00000.M2TS      4352 (0x1100)   0x81            AC3             eng (English)           8177,836                640                     654 228 480     3 833 370
00000.M2TS      4353 (0x1101)   0x83            TrueHD          eng (English)           8177,836                2 286                   2 337 176 694   17 803 951
00000.M2TS      4354 (0x1102)   0x81            AC3             ces (Czech)             8177,836                192                     196 267 776     1 277 785
00000.M2TS      4355 (0x1103)   0x81            AC3             hun (Hungarian)         8177,836                640                     654 225 920     3 833 355
00000.M2TS      4356 (0x1104)   0x81            AC3             pol (Polish)            8177,836                640                     654 225 920     3 833 355
00000.M2TS      4357 (0x1105)   0x81            AC3             rus (Russian)           8177,836                640                     654 225 920     3 833 355
00000.M2TS      4358 (0x1106)   0x81            AC3             tha (Thai)              8177,836                640                     654 225 920     3 833 355
00000.M2TS      4359 (0x1107)   0x81            AC3             tur (Turkish)           8177,836                192                     196 267 776     1 277 785
00000.M2TS      4360 (0x1108)   0x81            AC3             eng (English)           8177,836                192                     196 268 544     1 277 790
00000.M2TS      4361 (0x1109)   0x81            AC3             eng (English)           8177,836                192                     196 268 544     1 277 790
00000.M2TS      4362 (0x110A)   0x81            AC3             eng (English)           8177,836                192                     196 268 544     1 277 790
00000.M2TS      4363 (0x110B)   0x81            AC3             eng (English)           8177,836                192                     196 268 544     1 277 790
00000.M2TS      4608 (0x1200)   0x90            PGS             eng (English)           8177,836                21                      21 616 369      126 329
00000.M2TS      4609 (0x1201)   0x90            PGS             zho (Chinese)           8177,836                17                      17 491 427      103 496
00000.M2TS      4610 (0x1202)   0x90            PGS             ara (Arabic)            8177,836                10                      10 428 296      65 562
00000.M2TS      4611 (0x1203)   0x90            PGS             ind (Indonesian)        8177,836                24                      24 676 138      142 710
00000.M2TS      4612 (0x1204)   0x90            PGS             bul (Bulgarian)         8177,836                19                      19 862 567      114 141
00000.M2TS      4613 (0x1205)   0x90            PGS             hrv (Croatian)          8177,836                19                      18 993 482      112 165
00000.M2TS      4614 (0x1206)   0x90            PGS             ces (Czech)             8177,836                16                      16 826 322      100 254
00000.M2TS      4615 (0x1207)   0x90            PGS             est (Estonian)          8177,836                20                      19 975 062      116 941
00000.M2TS      4616 (0x1208)   0x90            PGS             heb (Hebrew)            8177,836                16                      16 278 085      97 362
00000.M2TS      4617 (0x1209)   0x90            PGS             hun (Hungarian)         8177,836                18                      18 561 215      109 798
00000.M2TS      4618 (0x120A)   0x90            PGS             isl (Icelandic)         8177,836                21                      21 413 013      125 172
00000.M2TS      4619 (0x120B)   0x90            PGS             lav (Latvian)           8177,836                19                      19 150 419      112 333
00000.M2TS      4620 (0x120C)   0x90            PGS             pol (Polish)            8177,836                16                      16 375 736      97 918
00000.M2TS      4621 (0x120D)   0x90            PGS             por (Portuguese)        8177,836                22                      22 075 522      128 480
00000.M2TS      4622 (0x120E)   0x90            PGS             ron (Romanian)          8177,836                18                      18 581 138      109 790
00000.M2TS      4623 (0x120F)   0x90            PGS             rus (Russian)           8177,836                21                      20 989 525      122 864
00000.M2TS      4624 (0x1210)   0x90            PGS             srp (Serbian)           8177,836                19                      19 693 586      115 782
00000.M2TS      4625 (0x1211)   0x90            PGS             slv (Slovenian)         8177,836                18                      18 865 274      111 384
00000.M2TS      4626 (0x1212)   0x90            PGS             tha (Thai)              8177,836                20                      20 836 966      121 606
00000.M2TS      4627 (0x1213)   0x90            PGS             tur (Turkish)           8177,836                19                      19 683 472      115 781
00000.M2TS      4628 (0x1214)   0x90            PGS             zho (Chinese)           8177,836                37                      37 547 638      216 277
00000.M2TS      4629 (0x1215)   0x90            PGS             zho (Chinese)           8177,836                36                      36 979 445      212 675
00000.M2TS      4630 (0x1216)   0x90            PGS             zho (Chinese)           8177,836                33                      33 553 738      194 867
00000.M2TS      4631 (0x1217)   0x90            PGS             zho (Chinese)           8177,836                10                      9 807 008       56 017
00000.M2TS      4632 (0x1218)   0x90            PGS             ces (Czech)             8177,836                0                       208 692         1 250
00000.M2TS      4633 (0x1219)   0x90            PGS             hun (Hungarian)         8177,836                0                       252 071         1 503
00000.M2TS      4634 (0x121A)   0x90            PGS             tur (Turkish)           8177,836                0                       276 411         1 644
00000.M2TS      4635 (0x121B)   0x90            PGS             eng (English)           8177,836                48                      48 990 612      279 006
00000.M2TS      4636 (0x121C)   0x90            PGS             zho (Chinese)           8177,836                37                      37 609 394      217 187
00000.M2TS      6656 (0x1A00)   0xA1            AC3+            eng (English)           8177,836                192                     196 230 144     1 277 540
00000.M2TS      6912 (0x1B00)   0xEA            VC-1                                    8177,836                1 745                   1 784 219 790   9 836 684
<---- END FORUMS PASTE ---->
QUICK SUMMARY:
Disc Title: Матрица.1999.Blu-ray
Disc Size: 40 443 665 265 bytes
Protection: AACS
BD-Java: Yes
Playlist: 00000.MPLS
Size: 29 006 635 008 bytes
Length: 2:16:17.961
Total Bitrate: 28,38 Mbps
Video: VC-1 Video / 16439 kbps / 1080p / 23,976 fps / 16:9 / Advanced Profile 3
* Video: VC-1 Video / 1745 kbps / 480p / 23,976 fps / 4:3 / Advanced Profile 2
Audio: English / Dolby Digital Audio / 5.1 / 48 kHz / 640 kbps / DN -4dB
Audio: English / Dolby TrueHD Audio / 5.1 / 48 kHz / 1646 kbps / 16-bit (AC3 Embedded: 5.1 / 48 kHz / 640 kbps / DN -4dB)
Audio: Czech / Dolby Digital Audio / 2.0 / 48 kHz / 192 kbps / DN -4dB
Audio: Hungarian / Dolby Digital Audio / 5.1 / 48 kHz / 640 kbps / DN -4dB
Audio: Polish / Dolby Digital Audio / 5.1 / 48 kHz / 640 kbps / DN -4dB
Audio: Russian / Dolby Digital Audio / 5.1 / 48 kHz / 640 kbps / DN -4dB
Audio: Thai / Dolby Digital Audio / 5.1 / 48 kHz / 640 kbps / DN -4dB
Audio: Turkish / Dolby Digital Audio / 2.0 / 48 kHz / 192 kbps / DN -4dB / Dolby Surround
Audio: English / Dolby Digital Audio / 2.0 / 48 kHz / 192 kbps / DN -4dB / Dolby Surround
Audio: English / Dolby Digital Audio / 2.0 / 48 kHz / 192 kbps / DN -4dB / Dolby Surround
Audio: English / Dolby Digital Audio / 2.0 / 48 kHz / 192 kbps / DN -4dB / Dolby Surround
Audio: English / Dolby Digital Audio / 2.0 / 48 kHz / 192 kbps / DN -4dB / Dolby Surround
* Audio: English / Dolby Digital Plus Audio / 2.0 / 48 kHz / 192 kbps
Subtitle: English / 21,146 kbps
Subtitle: Chinese / 17,111 kbps
Subtitle: Arabic / 10,201 kbps
Subtitle: Indonesian / 24,139 kbps
Subtitle: Bulgarian / 19,430 kbps
Subtitle: Croatian / 18,580 kbps
Subtitle: Czech / 16,460 kbps
Subtitle: Estonian / 19,540 kbps
Subtitle: Hebrew / 15,924 kbps
Subtitle: Hungarian / 18,157 kbps
Subtitle: Icelandic / 20,947 kbps
Subtitle: Latvian / 18,734 kbps
Subtitle: Polish / 16,019 kbps
Subtitle: Portuguese / 21,595 kbps
Subtitle: Romanian / 18,177 kbps
Subtitle: Russian / 20,533 kbps
Subtitle: Serbian / 19,265 kbps
Subtitle: Slovenian / 18,455 kbps
Subtitle: Thai / 20,384 kbps
Subtitle: Turkish / 19,255 kbps
Subtitle: Chinese / 36,731 kbps
Subtitle: Chinese / 36,175 kbps
Subtitle: Chinese / 32,824 kbps
Subtitle: Chinese / 9,594 kbps
Subtitle: Czech / 0,204 kbps
Subtitle: Hungarian / 0,247 kbps
Subtitle: Turkish / 0,270 kbps
Subtitle: English / 47,925 kbps
* Subtitle: Chinese / 36,791 kbps
[/code]

Скриншоты

       

Матрица-Перезагрузка

Матрица-Перезагрузка / The Matrix-ReloadedГод выпуска: 2003
Страна: США , Австралия
Жанр: Боевик,Фантастика
Продолжительность: 02:18:15
Перевод: Профессиональный (полное дублирование)
Режиссер: Энди Вачовски / Andy Vachovski,Лана Вачовски / Lana Vachovski
В ролях: Киану Ривз, Хьюго Уивинг,Моника Беллуччи,Ламбер Вильсон,Энтони Вон,Глория Фостер.....
Описание: Борцы за свободу Нео, Тринити и Морфеус продолжают руководить восстанием людей против Армии Машин. Для уничтожения системы репрессий и эксплуатации они вынуждены прибегнуть не только к арсеналу превосходного оружия, но и к своим выдающимся навыкам.

Качество: Blu-Ray
Формат: BDMV
Видео кодек: VC-1
Аудио кодек: Dolby Digital,Dolby TrueHD
Видео:
Video: VC-1 Video / 13889 kbps / 1080p / 23,976 fps / 16:9 / Advanced Profile 3
* Video: VC-1 Video / 1861 kbps / 480p / 23,976 fps / 4:3 / Advanced Profile 2
Аудио:
Audio 1: English / Dolby Digital Audio / 5.1 / 48 kHz / 640 kbps / DN -4dB
Audio 2: English / Dolby TrueHD Audio / 5.1 / 48 kHz / 1781 kbps / 16-bit (AC3 Embedded: 5.1 / 48 kHz / 640 kbps / DN -4dB)
Audio 3: Czech / Dolby Digital Audio / 5.1 / 48 kHz / 640 kbps / DN -4dB
Audio 4: Hungarian / Dolby Digital Audio / 5.1 / 48 kHz / 640 kbps / DN -4dB
Audio 5: Polish / Dolby Digital Audio / 5.1 / 48 kHz / 640 kbps / DN -4dB
Audio 6: Russian / Dolby Digital Audio / 5.1 / 48 kHz / 640 kbps / DN -4dB
Audio 7: Thai / Dolby Digital Audio / 5.1 / 48 kHz / 640 kbps / DN -4dB
Audio 8: Turkish / Dolby Digital Audio / 5.1 / 48 kHz / 640 kbps / DN -4dB
Audio 9: English / Dolby Digital Audio / 2.0 / 48 kHz / 192 kbps / DN -4dB / Dolby Surround
Audio 10: English / Dolby Digital Audio / 2.0 / 48 kHz / 192 kbps / DN -4dB / Dolby Surround
* Audio: English / Dolby Digital Plus Audio / 2.0 / 48 kHz / 224 kbps

BDInfo

Код:
Disc Title:     Матрица Перезагрузка.2003.Blu-ray
Disc Size:      41 231 184 275 bytes
Protection:     AACS
BD-Java:        Yes
BDInfo:         0.5.8
Notes:
BDINFO HOME:
  Cinema Squid
    http://www.cinemasquid.com/blu-ray/tools/bdinfo
INCLUDES FORUMS REPORT FOR:
  AVS Forum Blu-ray Audio and Video Specifications Thread
    http://www.avsforum.com/avs-vb/showthread.php?t=1155731
********************
PLAYLIST: 00004.MPLS
********************
<--- BEGIN FORUMS PASTE --->
[code]
                                                                                                                Total   Video
Title                                                           Codec   Length  Movie Size      Disc Size       Bitrate Bitrate Main Audio Track                          Secondary Audio Track
-----                                                           ------  ------- --------------  --------------  ------- ------- ------------------                        ---------------------
00004.MPLS                                                      VC-1    2:18:15 27 426 668 544  41 231 184 275  26,45   13,89   DD AC3 5.1 640Kbps                        Dolby TrueHD 5.1 1781Kbps (48kHz/16-bit)
Код:
DISC INFO:
Disc Title:     Матрица Перезагрузка.2003.Blu-ray
Disc Size:      41 231 184 275 bytes
Protection:     AACS
BD-Java:        Yes
BDInfo:         0.5.8
PLAYLIST REPORT:
Name:                   00004.MPLS
Length:                 2:18:15.495 (h:m:s.ms)
Size:                   27 426 668 544 bytes
Total Bitrate:          26,45 Mbps
(*) Indicates included stream hidden by this playlist.
VIDEO:
Codec                   Bitrate             Description
-----                   -------             -----------
VC-1 Video              13889 kbps          1080p / 23,976 fps / 16:9 / Advanced Profile 3
* VC-1 Video            1861 kbps           480p / 23,976 fps / 4:3 / Advanced Profile 2
AUDIO:
Codec                           Language        Bitrate         Description
-----                           --------        -------         -----------
Dolby Digital Audio             English         640 kbps        5.1 / 48 kHz / 640 kbps / DN -4dB
Dolby TrueHD Audio              English         1781 kbps       5.1 / 48 kHz / 1781 kbps / 16-bit (AC3 Embedded: 5.1 / 48 kHz / 640 kbps / DN -4dB)
Dolby Digital Audio             Czech           640 kbps        5.1 / 48 kHz / 640 kbps / DN -4dB
Dolby Digital Audio             Hungarian       640 kbps        5.1 / 48 kHz / 640 kbps / DN -4dB
Dolby Digital Audio             Polish          640 kbps        5.1 / 48 kHz / 640 kbps / DN -4dB
Dolby Digital Audio             Russian         640 kbps        5.1 / 48 kHz / 640 kbps / DN -4dB
Dolby Digital Audio             Thai            640 kbps        5.1 / 48 kHz / 640 kbps / DN -4dB
Dolby Digital Audio             Turkish         640 kbps        5.1 / 48 kHz / 640 kbps / DN -4dB
Dolby Digital Audio             English         192 kbps        2.0 / 48 kHz / 192 kbps / DN -4dB / Dolby Surround
Dolby Digital Audio             English         192 kbps        2.0 / 48 kHz / 192 kbps / DN -4dB / Dolby Surround
* Dolby Digital Plus Audio      English         224 kbps        2.0 / 48 kHz / 224 kbps
SUBTITLES:
Codec                           Language        Bitrate         Description
-----                           --------        -------         -----------
Presentation Graphics           English         24,172 kbps
Presentation Graphics           Chinese         19,429 kbps
Presentation Graphics           Arabic          12,349 kbps
Presentation Graphics           Indonesian      27,295 kbps
Presentation Graphics           Bulgarian       20,350 kbps
Presentation Graphics           Croatian        17,651 kbps
Presentation Graphics           Czech           19,240 kbps
Presentation Graphics           Hebrew          17,672 kbps
Presentation Graphics           Hungarian       20,096 kbps
Presentation Graphics           Icelandic       23,302 kbps
Presentation Graphics           Polish          16,539 kbps
Presentation Graphics           Portuguese      24,352 kbps
Presentation Graphics           Romanian        20,471 kbps
Presentation Graphics           Russian         21,704 kbps
Presentation Graphics           Slovenian       16,609 kbps
Presentation Graphics           Thai            22,395 kbps
Presentation Graphics           Turkish         23,155 kbps
Presentation Graphics           Chinese         41,701 kbps
Presentation Graphics           Chinese         37,827 kbps
Presentation Graphics           Czech           0,082 kbps
Presentation Graphics           Hungarian       0,051 kbps
Presentation Graphics           Turkish         0,108 kbps
Presentation Graphics           English         53,192 kbps
* Presentation Graphics         Chinese         39,852 kbps
FILES:
Name            Time In         Length          Size            Total Bitrate
----            -------         ------          ----            -------------
00003.M2TS      0:00:00.000     2:18:15.495     27 426 668 544  26 450
CHAPTERS:
Number          Time In         Length          Avg Video Rate  Max 1-Sec Rate  Max 1-Sec Time  Max 5-Sec Rate  Max 5-Sec Time  Max 10Sec Rate  Max 10Sec Time  Avg Frame Size  Max Frame Size  Max Frame Time
------          -------         ------          --------------  --------------  --------------  --------------  --------------  --------------  --------------  --------------  --------------  --------------
1               0:00:00.000     0:03:50.230     14 997 kbps     31 011 kbps     00:02:13.383    20 528 kbps     00:02:13.424    19 556 kbps     00:01:41.351    78 356 bytes    295 141 bytes   00:02:14.384
2               0:03:50.230     0:05:05.138     15 159 kbps     23 735 kbps     00:04:40.905    21 184 kbps     00:04:33.773    19 925 kbps     00:04:33.690    79 032 bytes    238 103 bytes   00:08:55.284
3               0:08:55.368     0:03:21.534     12 842 kbps     25 956 kbps     00:10:25.958    20 191 kbps     00:10:22.788    18 126 kbps     00:10:22.580    66 952 bytes    298 491 bytes   00:11:39.949
4               0:12:16.902     0:04:07.413     11 672 kbps     23 518 kbps     00:12:26.704    18 094 kbps     00:12:37.715    14 995 kbps     00:12:34.879    60 855 bytes    314 854 bytes   00:12:27.329
5               0:16:24.316     0:03:18.865     12 575 kbps     23 071 kbps     00:17:32.176    17 418 kbps     00:17:36.430    16 691 kbps     00:17:31.925    65 562 bytes    278 002 bytes   00:17:32.551
6               0:19:43.182     0:03:46.225     12 219 kbps     19 616 kbps     00:21:47.639    17 992 kbps     00:21:43.719    15 796 kbps     00:21:39.798    63 703 bytes    270 619 bytes   00:21:01.927
7               0:23:29.407     0:03:57.403     11 633 kbps     19 809 kbps     00:26:32.549    16 093 kbps     00:26:42.350    15 682 kbps     00:26:42.100    60 648 bytes    279 862 bytes   00:26:33.258
8               0:27:26.811     0:04:34.440     12 958 kbps     24 000 kbps     00:30:41.965    20 783 kbps     00:31:26.801    19 213 kbps     00:31:25.508    67 555 bytes    269 206 bytes   00:28:18.697
9               0:32:01.252     0:01:41.935     12 036 kbps     29 584 kbps     00:33:40.643    17 918 kbps     00:32:46.881    16 228 kbps     00:32:46.881    63 162 bytes    305 119 bytes   00:33:41.269
10              0:33:43.187     0:04:14.253     11 613 kbps     17 497 kbps     00:33:59.078    14 054 kbps     00:35:28.167    13 512 kbps     00:35:29.252    60 544 bytes    249 748 bytes   00:34:05.001
11              0:37:57.441     0:02:58.178     11 538 kbps     21 526 kbps     00:40:52.741    15 751 kbps     00:40:50.614    13 772 kbps     00:38:32.601    60 153 bytes    316 563 bytes   00:40:53.117
12              0:40:55.619     0:02:49.335     13 346 kbps     24 366 kbps     00:41:18.767    18 095 kbps     00:41:16.891    17 141 kbps     00:43:25.561    69 581 bytes    284 628 bytes   00:41:18.893
13              0:43:44.955     0:06:57.750     12 616 kbps     21 025 kbps     00:49:32.761    17 653 kbps     00:49:58.453    16 211 kbps     00:49:53.281    65 772 bytes    260 281 bytes   00:50:42.372
14              0:50:42.706     0:04:25.765     13 585 kbps     23 573 kbps     00:55:02.090    19 654 kbps     00:54:58.336    18 709 kbps     00:54:25.637    70 829 bytes    236 742 bytes   00:51:02.601
15              0:55:08.471     0:04:54.627     14 416 kbps     25 005 kbps     00:55:13.268    20 111 kbps     00:58:25.126    19 254 kbps     00:58:24.542    75 156 bytes    269 395 bytes   00:58:33.343
16              1:00:03.099     0:02:46.666     15 254 kbps     21 941 kbps     01:01:25.306    17 830 kbps     01:02:28.369    16 904 kbps     01:02:28.327    79 527 bytes    297 703 bytes   01:01:25.348
17              1:02:49.766     0:06:02.528     16 373 kbps     28 734 kbps     01:07:50.149    21 254 kbps     01:06:43.207    19 451 kbps     01:06:41.455    85 363 bytes    371 461 bytes   01:07:08.482
18              1:08:52.294     0:04:14.587     15 532 kbps     24 320 kbps     01:09:50.895    20 598 kbps     01:09:50.269    19 834 kbps     01:12:15.914    80 977 bytes    232 368 bytes   01:09:10.896
19              1:13:06.882     0:03:14.527     16 077 kbps     21 975 kbps     01:13:07.925    20 035 kbps     01:13:06.882    17 409 kbps     01:14:43.228    83 820 bytes    362 534 bytes   01:14:57.159
20              1:16:21.410     0:04:10.416     16 818 kbps     26 299 kbps     01:18:26.159    20 761 kbps     01:17:44.743    20 041 kbps     01:17:38.362    87 683 bytes    318 012 bytes   01:20:09.763
21              1:20:31.827     0:02:15.301     16 371 kbps     25 492 kbps     01:20:57.769    20 237 kbps     01:22:04.669    19 790 kbps     01:21:59.664    85 352 bytes    306 651 bytes   01:22:43.959
22              1:22:47.128     0:03:25.371     13 347 kbps     26 572 kbps     01:23:20.870    18 642 kbps     01:23:21.246    16 725 kbps     01:23:19.369    69 585 bytes    291 643 bytes   01:23:21.287
23              1:26:12.500     0:03:40.386     13 944 kbps     24 077 kbps     01:29:50.551    20 642 kbps     01:29:47.757    16 919 kbps     01:28:34.267    72 698 bytes    258 116 bytes   01:29:50.802
24              1:29:52.887     0:02:58.011     14 671 kbps     22 521 kbps     01:32:41.847    20 114 kbps     01:32:40.638    18 971 kbps     01:32:37.677    76 487 bytes    219 401 bytes   01:31:30.902
25              1:32:50.898     0:04:19.926     13 085 kbps     26 155 kbps     01:36:36.040    20 581 kbps     01:36:35.998    17 749 kbps     01:36:33.787    68 218 bytes    267 476 bytes   01:36:43.214
26              1:37:10.825     0:03:40.553     15 033 kbps     26 676 kbps     01:38:38.162    20 523 kbps     01:39:27.836    19 526 kbps     01:39:23.248    78 378 bytes    281 642 bytes   01:38:38.912
27              1:40:51.378     0:04:06.412     16 340 kbps     29 650 kbps     01:41:26.872    21 278 kbps     01:43:13.395    19 807 kbps     01:43:08.473    85 191 bytes    339 631 bytes   01:41:37.424
28              1:44:57.791     0:03:14.360     15 589 kbps     27 692 kbps     01:46:23.919    20 464 kbps     01:46:31.468    18 608 kbps     01:46:24.086    81 273 bytes    385 846 bytes   01:48:08.064
29              1:48:12.152     0:04:13.419     15 082 kbps     30 710 kbps     01:50:01.136    20 407 kbps     01:49:13.463    18 908 kbps     01:49:08.625    78 646 bytes    370 964 bytes   01:50:01.845
30              1:52:25.572     0:03:17.363     16 232 kbps     23 551 kbps     01:54:48.631    20 674 kbps     01:54:45.587    20 025 kbps     01:54:40.582    84 624 bytes    305 659 bytes   01:53:01.107
31              1:55:42.936     0:01:54.614     17 202 kbps     23 820 kbps     01:57:20.575    20 742 kbps     01:57:06.686    19 600 kbps     01:57:06.644    89 685 bytes    317 844 bytes   01:56:43.579
32              1:57:37.550     0:04:13.920     13 323 kbps     30 107 kbps     02:00:12.622    20 784 kbps     01:58:29.852    20 170 kbps     01:58:29.852    69 461 bytes    383 841 bytes   02:00:12.663
33              2:01:51.470     0:02:26.980     14 278 kbps     26 973 kbps     02:03:59.432    18 173 kbps     02:02:08.821    17 312 kbps     02:03:58.806    74 439 bytes    262 508 bytes   02:03:59.849
34              2:04:18.451     0:02:45.665     13 881 kbps     25 487 kbps     02:05:02.953    18 980 kbps     02:05:02.620    17 458 kbps     02:06:48.976    72 371 bytes    264 297 bytes   02:06:51.353
35              2:07:04.116     0:09:25.565     10 724 kbps     22 917 kbps     02:14:27.559    20 771 kbps     02:13:18.281    20 132 kbps     02:13:14.778    55 950 bytes    485 876 bytes   02:14:28.393
36              2:16:29.681     0:01:45.814     13 490 kbps     27 859 kbps     02:17:13.266    20 477 kbps     02:16:58.210    19 981 kbps     02:17:12.515    70 976 bytes    322 201 bytes   02:17:30.450
STREAM DIAGNOSTICS:
File            PID             Type            Codec           Language                Seconds                 Bitrate                 Bytes           Packets
----            ---             ----            -----           --------                --------------          --------------          -------------   -----
00003.M2TS      4113 (0x1011)   0xEA            VC-1                                    8295,412                13 889                  14 402 087 478  78 391 805
00003.M2TS      4352 (0x1100)   0x81            AC3             eng (English)           8295,412                640                     663 636 480     3 888 495
00003.M2TS      4353 (0x1101)   0x83            TrueHD          eng (English)           8295,412                2 421                   2 510 429 338   19 250 929
00003.M2TS      4354 (0x1102)   0x81            AC3             ces (Czech)             8295,412                640                     663 636 480     3 888 495
00003.M2TS      4355 (0x1103)   0x81            AC3             hun (Hungarian)         8295,412                640                     663 636 480     3 888 495
00003.M2TS      4356 (0x1104)   0x81            AC3             pol (Polish)            8295,412                640                     663 636 480     3 888 495
00003.M2TS      4357 (0x1105)   0x81            AC3             rus (Russian)           8295,412                640                     663 636 480     3 888 495
00003.M2TS      4358 (0x1106)   0x81            AC3             tha (Thai)              8295,412                640                     663 636 480     3 888 495
00003.M2TS      4359 (0x1107)   0x81            AC3             tur (Turkish)           8295,412                640                     663 636 480     3 888 495
00003.M2TS      4360 (0x1108)   0x81            AC3             eng (English)           8295,412                192                     199 090 944     1 296 165
00003.M2TS      4361 (0x1109)   0x81            AC3             eng (English)           8295,412                192                     199 090 944     1 296 165
00003.M2TS      4608 (0x1200)   0x90            PGS             eng (English)           8295,412                24                      25 064 469      144 144
00003.M2TS      4609 (0x1201)   0x90            PGS             zho (Chinese)           8295,412                19                      20 146 766      117 209
00003.M2TS      4610 (0x1202)   0x90            PGS             ara (Arabic)            8295,412                12                      12 805 300      77 331
00003.M2TS      4611 (0x1203)   0x90            PGS             ind (Indonesian)        8295,412                27                      28 302 942      161 485
00003.M2TS      4612 (0x1204)   0x90            PGS             bul (Bulgarian)         8295,412                20                      21 101 349      121 502
00003.M2TS      4613 (0x1205)   0x90            PGS             hrv (Croatian)          8295,412                18                      18 303 482      107 180
00003.M2TS      4614 (0x1206)   0x90            PGS             ces (Czech)             8295,412                19                      19 950 344      116 050
00003.M2TS      4615 (0x1207)   0x90            PGS             heb (Hebrew)            8295,412                18                      18 324 973      107 296
00003.M2TS      4616 (0x1208)   0x90            PGS             hun (Hungarian)         8295,412                20                      20 838 068      120 265
00003.M2TS      4617 (0x1209)   0x90            PGS             isl (Icelandic)         8295,412                23                      24 162 535      139 044
00003.M2TS      4618 (0x120A)   0x90            PGS             pol (Polish)            8295,412                17                      17 149 932      100 241
00003.M2TS      4619 (0x120B)   0x90            PGS             por (Portuguese)        8295,412                24                      25 251 986      145 288
00003.M2TS      4620 (0x120C)   0x90            PGS             ron (Romanian)          8295,412                20                      21 227 322      123 269
00003.M2TS      4621 (0x120D)   0x90            PGS             rus (Russian)           8295,412                22                      22 505 229      129 941
00003.M2TS      4622 (0x120E)   0x90            PGS             slv (Slovenian)         8295,412                17                      17 222 185      101 262
00003.M2TS      4623 (0x120F)   0x90            PGS             tha (Thai)              8295,412                22                      23 222 281      134 738
00003.M2TS      4624 (0x1210)   0x90            PGS             tur (Turkish)           8295,412                23                      24 009 773      138 184
00003.M2TS      4625 (0x1211)   0x90            PGS             zho (Chinese)           8295,412                42                      43 241 446      247 448
00003.M2TS      4626 (0x1212)   0x90            PGS             zho (Chinese)           8295,412                38                      39 224 284      224 603
00003.M2TS      4627 (0x1213)   0x90            PGS             ces (Czech)             8295,412                0                       84 790          512
00003.M2TS      4628 (0x1214)   0x90            PGS             hun (Hungarian)         8295,412                0                       52 447          310
00003.M2TS      4629 (0x1215)   0x90            PGS             tur (Turkish)           8295,412                0                       111 967         664
00003.M2TS      4630 (0x1216)   0x90            PGS             eng (English)           8295,412                53                      55 156 370      313 402
00003.M2TS      4631 (0x1217)   0x90            PGS             zho (Chinese)           8295,412                40                      41 323 711      238 170
00003.M2TS      6656 (0x1A00)   0xA1            AC3+            eng (English)           8295,412                224                     232 301 440     1 296 325
00003.M2TS      6912 (0x1B00)   0xEA            VC-1                                    8295,412                1 861                   1 929 303 917   10 620 620
<---- END FORUMS PASTE ---->
QUICK SUMMARY:
Disc Title: Матрица Перезагрузка.2003.Blu-ray
Disc Size: 41 231 184 275 bytes
Protection: AACS
BD-Java: Yes
Playlist: 00004.MPLS
Size: 27 426 668 544 bytes
Length: 2:18:15.495
Total Bitrate: 26,45 Mbps
Video: VC-1 Video / 13889 kbps / 1080p / 23,976 fps / 16:9 / Advanced Profile 3
* Video: VC-1 Video / 1861 kbps / 480p / 23,976 fps / 4:3 / Advanced Profile 2
Audio: English / Dolby Digital Audio / 5.1 / 48 kHz / 640 kbps / DN -4dB
Audio: English / Dolby TrueHD Audio / 5.1 / 48 kHz / 1781 kbps / 16-bit (AC3 Embedded: 5.1 / 48 kHz / 640 kbps / DN -4dB)
Audio: Czech / Dolby Digital Audio / 5.1 / 48 kHz / 640 kbps / DN -4dB
Audio: Hungarian / Dolby Digital Audio / 5.1 / 48 kHz / 640 kbps / DN -4dB
Audio: Polish / Dolby Digital Audio / 5.1 / 48 kHz / 640 kbps / DN -4dB
Audio: Russian / Dolby Digital Audio / 5.1 / 48 kHz / 640 kbps / DN -4dB
Audio: Thai / Dolby Digital Audio / 5.1 / 48 kHz / 640 kbps / DN -4dB
Audio: Turkish / Dolby Digital Audio / 5.1 / 48 kHz / 640 kbps / DN -4dB
Audio: English / Dolby Digital Audio / 2.0 / 48 kHz / 192 kbps / DN -4dB / Dolby Surround
Audio: English / Dolby Digital Audio / 2.0 / 48 kHz / 192 kbps / DN -4dB / Dolby Surround
* Audio: English / Dolby Digital Plus Audio / 2.0 / 48 kHz / 224 kbps
Subtitle: English / 24,172 kbps
Subtitle: Chinese / 19,429 kbps
Subtitle: Arabic / 12,349 kbps
Subtitle: Indonesian / 27,295 kbps
Subtitle: Bulgarian / 20,350 kbps
Subtitle: Croatian / 17,651 kbps
Subtitle: Czech / 19,240 kbps
Subtitle: Hebrew / 17,672 kbps
Subtitle: Hungarian / 20,096 kbps
Subtitle: Icelandic / 23,302 kbps
Subtitle: Polish / 16,539 kbps
Subtitle: Portuguese / 24,352 kbps
Subtitle: Romanian / 20,471 kbps
Subtitle: Russian / 21,704 kbps
Subtitle: Slovenian / 16,609 kbps
Subtitle: Thai / 22,395 kbps
Subtitle: Turkish / 23,155 kbps
Subtitle: Chinese / 41,701 kbps
Subtitle: Chinese / 37,827 kbps
Subtitle: Czech / 0,082 kbps
Subtitle: Hungarian / 0,051 kbps
Subtitle: Turkish / 0,108 kbps
Subtitle: English / 53,192 kbps
* Subtitle: Chinese / 39,852 kbps
[/code]

Скриншоты

       

Матрица-Революция

Матрица-Революция / The Matrix-RevolutionsГод выпуска: 2003
Страна: США , Австралия
Жанр: Боевик,Фантастика
Продолжительность: 02:09:15
Перевод: Профессиональный (полное дублирование)
Режиссер: Энди Вачовски / Andy Vachovski,Лана Вачовски / Lana Vachovski
В ролях: Киану Ривз, Джада Пинкетт Смит,.Хэролд Перрино,Гарри Дж. Ленникс,Хельмут Бакайтис....
Описание: Пока армия Машин пытается уничтожить Зион, его жители из последних сил держат оборону. Но удастся ли им предотвратить полное вторжение в город кишащей орды беспощадных машин до того, как Нео соберет все свои силы и положит конец войне?

Качество: Blu-Ray
Формат: BDMV
Видео кодек: VC-1
Аудио кодек: Dolby Digital,Dolby TrueHD
Видео:
Video: VC-1 Video / 13883 kbps / 1080p / 23,976 fps / 16:9 / Advanced Profile 3
* Video: VC-1 Video / 1858 kbps / 480p / 23,976 fps / 4:3 / Advanced Profile 2
Аудио:
Audio 1: English / Dolby Digital Audio / 5.1 / 48 kHz / 640 kbps / DN -4dB
Audio 2: English / Dolby TrueHD Audio / 5.1 / 48 kHz / 1801 kbps / 16-bit (AC3 Embedded: 5.1 / 48 kHz / 640 kbps / DN -4dB)
Audio 3: Czech / Dolby Digital Audio / 5.1 / 48 kHz / 640 kbps / DN -4dB
Audio 4: Hungarian / Dolby Digital Audio / 5.1 / 48 kHz / 640 kbps / DN -4dB
Audio 5: Polish / Dolby Digital Audio / 5.1 / 48 kHz / 640 kbps / DN -4dB
Audio 6: Russian / Dolby Digital Audio / 5.1 / 48 kHz / 640 kbps / DN -4dB
Audio 7: Thai / Dolby Digital Audio / 5.1 / 48 kHz / 640 kbps / DN -4dB
Audio 8: Turkish / Dolby Digital Audio / 5.1 / 48 kHz / 640 kbps / DN -4dB
Audio 9: English / Dolby Digital Audio / 2.0 / 48 kHz / 192 kbps / DN -4dB / Dolby Surround
Audio 10: English / Dolby Digital Audio / 2.0 / 48 kHz / 192 kbps / DN -4dB / Dolby Surround
* Audio: English / Dolby Digital Plus Audio / 2.0 / 48 kHz / 224 kbps

BDInfo

Код:
Disc Title:     Матрица Революция.2003.Blu-ray
Disc Size:      37 829 422 897 bytes
Protection:     AACS
BD-Java:        Yes
BDInfo:         0.5.8
Notes:
BDINFO HOME:
  Cinema Squid
    http://www.cinemasquid.com/blu-ray/tools/bdinfo
INCLUDES FORUMS REPORT FOR:
  AVS Forum Blu-ray Audio and Video Specifications Thread
    http://www.avsforum.com/avs-vb/showthread.php?t=1155731
********************
PLAYLIST: 00000.MPLS
********************
<--- BEGIN FORUMS PASTE --->
[code]
                                                                                                                Total   Video
Title                                                           Codec   Length  Movie Size      Disc Size       Bitrate Bitrate Main Audio Track                          Secondary Audio Track
-----                                                           ------  ------- --------------  --------------  ------- ------- ------------------                        ---------------------
00000.MPLS                                                      VC-1    2:09:15 25 637 338 560  37 829 422 897  26,44   13,88   DD AC3 5.1 640Kbps                        Dolby TrueHD 5.1 1801Kbps (48kHz/16-bit)
Код:
DISC INFO:
Disc Title:     Матрица Революция.2003.Blu-ray
Disc Size:      37 829 422 897 bytes
Protection:     AACS
BD-Java:        Yes
BDInfo:         0.5.8
PLAYLIST REPORT:
Name:                   00000.MPLS
Length:                 2:09:15.956 (h:m:s.ms)
Size:                   25 637 338 560 bytes
Total Bitrate:          26,44 Mbps
(*) Indicates included stream hidden by this playlist.
VIDEO:
Codec                   Bitrate             Description
-----                   -------             -----------
VC-1 Video              13883 kbps          1080p / 23,976 fps / 16:9 / Advanced Profile 3
* VC-1 Video            1858 kbps           480p / 23,976 fps / 4:3 / Advanced Profile 2
AUDIO:
Codec                           Language        Bitrate         Description
-----                           --------        -------         -----------
Dolby Digital Audio             English         640 kbps        5.1 / 48 kHz / 640 kbps / DN -4dB
Dolby TrueHD Audio              English         1801 kbps       5.1 / 48 kHz / 1801 kbps / 16-bit (AC3 Embedded: 5.1 / 48 kHz / 640 kbps / DN -4dB)
Dolby Digital Audio             Czech           640 kbps        5.1 / 48 kHz / 640 kbps / DN -4dB
Dolby Digital Audio             Hungarian       640 kbps        5.1 / 48 kHz / 640 kbps / DN -4dB
Dolby Digital Audio             Polish          640 kbps        5.1 / 48 kHz / 640 kbps / DN -4dB
Dolby Digital Audio             Russian         640 kbps        5.1 / 48 kHz / 640 kbps / DN -4dB
Dolby Digital Audio             Thai            640 kbps        5.1 / 48 kHz / 640 kbps / DN -4dB
Dolby Digital Audio             Turkish         640 kbps        5.1 / 48 kHz / 640 kbps / DN -4dB
Dolby Digital Audio             English         192 kbps        2.0 / 48 kHz / 192 kbps / DN -4dB / Dolby Surround
Dolby Digital Audio             English         192 kbps        2.0 / 48 kHz / 192 kbps / DN -4dB / Dolby Surround
* Dolby Digital Plus Audio      English         224 kbps        2.0 / 48 kHz / 224 kbps
SUBTITLES:
Codec                           Language        Bitrate         Description
-----                           --------        -------         -----------
Presentation Graphics           English         21,217 kbps
Presentation Graphics           Chinese         16,714 kbps
Presentation Graphics           Arabic          11,896 kbps
Presentation Graphics           Indonesian      24,399 kbps
Presentation Graphics           Bulgarian       18,384 kbps
Presentation Graphics           Croatian        15,786 kbps
Presentation Graphics           Czech           17,264 kbps
Presentation Graphics           Estonian        20,183 kbps
Presentation Graphics           Hebrew          16,062 kbps
Presentation Graphics           Hungarian       17,784 kbps
Presentation Graphics           Icelandic       20,890 kbps
Presentation Graphics           Latvian         17,218 kbps
Presentation Graphics           Lithuanian      18,844 kbps
Presentation Graphics           Polish          15,679 kbps
Presentation Graphics           Portuguese      20,712 kbps
Presentation Graphics           Romanian        18,018 kbps
Presentation Graphics           Russian         19,532 kbps
Presentation Graphics           Slovenian       14,891 kbps
Presentation Graphics           Thai            19,927 kbps
Presentation Graphics           Turkish         20,387 kbps
Presentation Graphics           Chinese         39,550 kbps
Presentation Graphics           Chinese         34,339 kbps
Presentation Graphics           English         51,364 kbps
* Presentation Graphics         Chinese         37,548 kbps
FILES:
Name            Time In         Length          Size            Total Bitrate
----            -------         ------          ----            -------------
00008.M2TS      0:00:00.000     2:09:15.956     25 637 338 560  26 444
CHAPTERS:
Number          Time In         Length          Avg Video Rate  Max 1-Sec Rate  Max 1-Sec Time  Max 5-Sec Rate  Max 5-Sec Time  Max 10Sec Rate  Max 10Sec Time  Avg Frame Size  Max Frame Size  Max Frame Time
------          -------         ------          --------------  --------------  --------------  --------------  --------------  --------------  --------------  --------------  --------------  --------------
1               0:00:00.000     0:03:55.401     13 343 kbps     30 607 kbps     00:00:48.590    20 741 kbps     00:01:01.436    19 842 kbps     00:02:13.800    69 836 bytes    343 761 bytes   00:00:49.215
2               0:03:55.401     0:03:37.717     14 722 kbps     23 516 kbps     00:04:59.299    19 725 kbps     00:05:02.927    19 501 kbps     00:04:59.048    76 754 bytes    260 585 bytes   00:04:08.289
3               0:07:33.119     0:02:46.833     14 522 kbps     22 069 kbps     00:09:44.041    17 224 kbps     00:08:01.022    16 051 kbps     00:08:01.022    75 713 bytes    266 329 bytes   00:08:01.189
4               0:10:19.952     0:04:24.430     15 266 kbps     24 116 kbps     00:10:39.472    20 474 kbps     00:12:22.742    19 312 kbps     00:12:20.698    79 590 bytes    260 716 bytes   00:14:09.348
5               0:14:44.383     0:03:14.360     15 697 kbps     24 921 kbps     00:17:36.305    21 372 kbps     00:16:11.553    18 779 kbps     00:17:34.720    81 834 bytes    197 208 bytes   00:16:32.324
6               0:17:58.744     0:05:34.500     16 531 kbps     24 211 kbps     00:22:17.794    20 815 kbps     00:18:07.628    19 551 kbps     00:20:07.080    86 187 bytes    251 734 bytes   00:19:32.671
7               0:23:33.245     0:06:33.059     13 605 kbps     25 014 kbps     00:26:09.276    20 832 kbps     00:25:48.004    19 816 kbps     00:25:35.158    70 929 bytes    242 610 bytes   00:23:37.833
8               0:30:06.304     0:05:29.328     15 673 kbps     27 162 kbps     00:34:57.220    21 498 kbps     00:31:48.948    19 758 kbps     00:34:02.874    81 714 bytes    245 899 bytes   00:34:57.595
9               0:35:35.633     0:03:58.571     13 711 kbps     23 661 kbps     00:36:46.704    21 410 kbps     00:38:38.399    20 154 kbps     00:36:59.550    71 482 bytes    230 089 bytes   00:38:20.798
10              0:39:34.205     0:03:24.704     11 823 kbps     21 551 kbps     00:42:57.866    18 341 kbps     00:42:06.398    16 893 kbps     00:42:01.352    61 638 bytes    261 167 bytes   00:40:58.789
11              0:42:58.909     0:03:44.390     13 263 kbps     21 981 kbps     00:43:50.419    19 613 kbps     00:43:08.711    19 087 kbps     00:45:31.186    69 146 bytes    348 831 bytes   00:43:50.794
12              0:46:43.300     0:02:19.305     14 150 kbps     21 704 kbps     00:46:44.134    18 275 kbps     00:47:20.295    17 986 kbps     00:47:15.290    73 773 bytes    245 598 bytes   00:47:44.528
13              0:49:02.606     0:02:51.004     12 836 kbps     27 317 kbps     00:51:32.672    20 828 kbps     00:49:02.606    17 845 kbps     00:50:54.092    66 922 bytes    223 449 bytes   00:49:13.408
14              0:51:53.610     0:06:07.033     13 248 kbps     27 052 kbps     00:55:25.822    20 638 kbps     00:57:13.263    19 896 kbps     00:57:10.552    69 070 bytes    243 109 bytes   00:53:25.243
15              0:58:00.643     0:02:18.471     14 826 kbps     22 200 kbps     00:58:17.827    20 987 kbps     00:58:13.948    19 855 kbps     01:00:08.104    77 297 bytes    297 456 bytes   00:59:48.001
16              1:00:19.115     0:02:10.630     14 943 kbps     23 898 kbps     01:01:53.376    20 863 kbps     01:01:50.373    19 071 kbps     01:01:24.597    77 908 bytes    205 330 bytes   01:00:28.374
17              1:02:29.746     0:05:31.164     16 275 kbps     30 614 kbps     01:04:03.965    21 610 kbps     01:03:14.290    19 823 kbps     01:04:03.965    84 848 bytes    350 650 bytes   01:03:33.309
18              1:08:00.910     0:02:28.314     15 704 kbps     28 126 kbps     01:10:19.757    20 680 kbps     01:09:23.617    19 934 kbps     01:09:23.909    81 872 bytes    274 036 bytes   01:09:58.110
19              1:10:29.225     0:04:04.577     14 987 kbps     28 370 kbps     01:12:47.154    21 180 kbps     01:12:21.795    20 056 kbps     01:10:44.281    78 136 bytes    262 289 bytes   01:12:10.159
20              1:14:33.802     0:03:49.562     15 136 kbps     28 744 kbps     01:15:09.546    21 003 kbps     01:15:27.648    19 996 kbps     01:14:40.601    78 914 bytes    307 637 bytes   01:15:01.163
21              1:18:23.365     0:04:45.618     14 327 kbps     25 741 kbps     01:20:29.282    21 286 kbps     01:19:04.990    20 062 kbps     01:18:59.443    74 695 bytes    266 505 bytes   01:20:46.758
22              1:23:08.984     0:02:46.833     15 014 kbps     24 026 kbps     01:23:51.609    21 352 kbps     01:24:40.075    19 423 kbps     01:25:45.807    78 274 bytes    256 060 bytes   01:24:49.918
23              1:25:55.817     0:03:17.530     11 245 kbps     24 919 kbps     01:25:57.944    19 483 kbps     01:25:55.984    17 491 kbps     01:26:23.469    58 628 bytes    262 120 bytes   01:26:57.921
24              1:29:13.348     0:02:38.324     14 813 kbps     24 756 kbps     01:30:51.279    19 641 kbps     01:31:14.969    18 835 kbps     01:31:13.509    77 226 bytes    219 906 bytes   01:31:36.908
25              1:31:51.672     0:04:59.799     16 241 kbps     25 271 kbps     01:32:04.393    20 805 kbps     01:32:51.566    20 064 kbps     01:32:46.561    84 673 bytes    338 089 bytes   01:32:05.019
26              1:36:51.472     0:05:03.803     13 292 kbps     28 682 kbps     01:41:22.242    21 073 kbps     01:38:13.512    20 174 kbps     01:40:02.246    69 300 bytes    311 043 bytes   01:41:22.326
27              1:41:55.275     0:02:57.844     16 162 kbps     25 713 kbps     01:41:57.486    20 909 kbps     01:41:57.486    19 112 kbps     01:41:55.526    84 259 bytes    312 373 bytes   01:44:00.609
28              1:44:53.120     0:03:13.526     16 559 kbps     27 861 kbps     01:46:28.173    21 095 kbps     01:47:39.161    19 819 kbps     01:46:51.655    86 330 bytes    277 118 bytes   01:46:28.799
29              1:48:06.646     0:03:24.204     17 273 kbps     29 868 kbps     01:48:59.574    21 021 kbps     01:48:37.302    20 012 kbps     01:50:30.415    90 053 bytes    362 143 bytes   01:48:59.699
30              1:51:30.850     0:03:35.048     12 922 kbps     30 189 kbps     01:51:58.420    20 980 kbps     01:54:31.281    18 416 kbps     01:52:03.091    67 369 bytes    359 192 bytes   01:52:05.176
31              1:55:05.899     0:02:25.311     13 038 kbps     26 284 kbps     01:57:25.038    20 800 kbps     01:57:25.038    17 778 kbps     01:57:12.608    67 975 bytes    310 662 bytes   01:55:30.340
32              1:57:31.210     0:02:41.161     10 709 kbps     19 945 kbps     01:58:26.474    15 645 kbps     01:57:33.421    14 538 kbps     01:58:44.033    55 975 bytes    233 405 bytes   01:59:15.648
33              2:00:12.371     0:09:03.584     5 793 kbps      11 879 kbps     02:05:39.573    10 655 kbps     02:05:37.404    10 373 kbps     02:05:36.320    30 264 bytes    265 905 bytes   02:05:39.281
STREAM DIAGNOSTICS:
File            PID             Type            Codec           Language                Seconds                 Bitrate                 Bytes           Packets
----            ---             ----            -----           --------                --------------          --------------          -------------   -----
00008.M2TS      4113 (0x1011)   0xEA            VC-1                                    7757,833                13 880                  13 460 047 503  73 264 141
00008.M2TS      4352 (0x1100)   0x81            AC3             eng (English)           7757,833                640                     620 474 880     3 635 595
00008.M2TS      4353 (0x1101)   0x83            TrueHD          eng (English)           7757,833                2 440                   2 366 547 591   17 959 056
00008.M2TS      4354 (0x1102)   0x81            AC3             ces (Czech)             7757,833                640                     620 474 880     3 635 595
00008.M2TS      4355 (0x1103)   0x81            AC3             hun (Hungarian)         7757,833                640                     620 474 880     3 635 595
00008.M2TS      4356 (0x1104)   0x81            AC3             pol (Polish)            7757,833                640                     620 474 880     3 635 595
00008.M2TS      4357 (0x1105)   0x81            AC3             rus (Russian)           7757,833                640                     620 472 320     3 635 580
00008.M2TS      4358 (0x1106)   0x81            AC3             tha (Thai)              7757,833                640                     620 474 880     3 635 595
00008.M2TS      4359 (0x1107)   0x81            AC3             tur (Turkish)           7757,833                640                     620 474 880     3 635 595
00008.M2TS      4360 (0x1108)   0x81            AC3             eng (English)           7757,833                192                     186 142 464     1 211 865
00008.M2TS      4361 (0x1109)   0x81            AC3             eng (English)           7757,833                192                     186 142 464     1 211 865
00008.M2TS      4608 (0x1200)   0x90            PGS             eng (English)           7757,833                21                      20 570 000      118 949
00008.M2TS      4609 (0x1201)   0x90            PGS             zho (Chinese)           7757,833                17                      16 204 684      94 867
00008.M2TS      4610 (0x1202)   0x90            PGS             ara (Arabic)            7757,833                12                      11 533 081      69 613
00008.M2TS      4611 (0x1203)   0x90            PGS             ind (Indonesian)        7757,833                24                      23 654 555      135 332
00008.M2TS      4612 (0x1204)   0x90            PGS             bul (Bulgarian)         7757,833                18                      17 823 235      103 751
00008.M2TS      4613 (0x1205)   0x90            PGS             hrv (Croatian)          7757,833                16                      15 304 189      90 055
00008.M2TS      4614 (0x1206)   0x90            PGS             ces (Czech)             7757,833                17                      16 737 173      97 762
00008.M2TS      4615 (0x1207)   0x90            PGS             est (Estonian)          7757,833                20                      19 567 602      113 091
00008.M2TS      4616 (0x1208)   0x90            PGS             heb (Hebrew)            7757,833                16                      15 571 930      91 535
00008.M2TS      4617 (0x1209)   0x90            PGS             hun (Hungarian)         7757,833                18                      17 241 309      100 588
00008.M2TS      4618 (0x120A)   0x90            PGS             isl (Icelandic)         7757,833                21                      20 253 215      117 020
00008.M2TS      4619 (0x120B)   0x90            PGS             lav (Latvian)           7757,833                17                      16 692 723      97 258
00008.M2TS      4620 (0x120C)   0x90            PGS             lit (Lithuanian)        7757,833                19                      18 269 611      106 165
00008.M2TS      4621 (0x120D)   0x90            PGS             pol (Polish)            7757,833                16                      15 200 622      89 415
00008.M2TS      4622 (0x120E)   0x90            PGS             por (Portuguese)        7757,833                21                      20 080 498      115 988
00008.M2TS      4623 (0x120F)   0x90            PGS             ron (Romanian)          7757,833                18                      17 468 621      101 819
00008.M2TS      4624 (0x1210)   0x90            PGS             rus (Russian)           7757,833                20                      18 936 158      109 881
00008.M2TS      4625 (0x1211)   0x90            PGS             slv (Slovenian)         7757,833                15                      14 437 048      85 317
00008.M2TS      4626 (0x1212)   0x90            PGS             tha (Thai)              7757,833                20                      19 319 283      111 802
00008.M2TS      4627 (0x1213)   0x90            PGS             tur (Turkish)           7757,833                20                      19 764 764      114 291
00008.M2TS      4628 (0x1214)   0x90            PGS             zho (Chinese)           7757,833                40                      38 343 870      219 353
00008.M2TS      4629 (0x1215)   0x90            PGS             zho (Chinese)           7757,833                34                      33 291 268      191 083
00008.M2TS      4630 (0x1216)   0x90            PGS             eng (English)           7757,833                51                      49 796 918      282 965
00008.M2TS      4631 (0x1217)   0x90            PGS             zho (Chinese)           7757,833                38                      36 403 101      209 682
00008.M2TS      6656 (0x1A00)   0xA1            AC3+            eng (English)           7757,833                224                     217 223 552     1 212 185
00008.M2TS      6912 (0x1B00)   0xEA            VC-1                                    7757,833                1 857                   1 800 870 538   9 913 141
<---- END FORUMS PASTE ---->
QUICK SUMMARY:
Disc Title: Матрица Революция.2003.Blu-ray
Disc Size: 37 829 422 897 bytes
Protection: AACS
BD-Java: Yes
Playlist: 00000.MPLS
Size: 25 637 338 560 bytes
Length: 2:09:15.956
Total Bitrate: 26,44 Mbps
Video: VC-1 Video / 13883 kbps / 1080p / 23,976 fps / 16:9 / Advanced Profile 3
* Video: VC-1 Video / 1858 kbps / 480p / 23,976 fps / 4:3 / Advanced Profile 2
Audio: English / Dolby Digital Audio / 5.1 / 48 kHz / 640 kbps / DN -4dB
Audio: English / Dolby TrueHD Audio / 5.1 / 48 kHz / 1801 kbps / 16-bit (AC3 Embedded: 5.1 / 48 kHz / 640 kbps / DN -4dB)
Audio: Czech / Dolby Digital Audio / 5.1 / 48 kHz / 640 kbps / DN -4dB
Audio: Hungarian / Dolby Digital Audio / 5.1 / 48 kHz / 640 kbps / DN -4dB
Audio: Polish / Dolby Digital Audio / 5.1 / 48 kHz / 640 kbps / DN -4dB
Audio: Russian / Dolby Digital Audio / 5.1 / 48 kHz / 640 kbps / DN -4dB
Audio: Thai / Dolby Digital Audio / 5.1 / 48 kHz / 640 kbps / DN -4dB
Audio: Turkish / Dolby Digital Audio / 5.1 / 48 kHz / 640 kbps / DN -4dB
Audio: English / Dolby Digital Audio / 2.0 / 48 kHz / 192 kbps / DN -4dB / Dolby Surround
Audio: English / Dolby Digital Audio / 2.0 / 48 kHz / 192 kbps / DN -4dB / Dolby Surround
* Audio: English / Dolby Digital Plus Audio / 2.0 / 48 kHz / 224 kbps
Subtitle: English / 21,217 kbps
Subtitle: Chinese / 16,714 kbps
Subtitle: Arabic / 11,896 kbps
Subtitle: Indonesian / 24,399 kbps
Subtitle: Bulgarian / 18,384 kbps
Subtitle: Croatian / 15,786 kbps
Subtitle: Czech / 17,264 kbps
Subtitle: Estonian / 20,183 kbps
Subtitle: Hebrew / 16,062 kbps
Subtitle: Hungarian / 17,784 kbps
Subtitle: Icelandic / 20,890 kbps
Subtitle: Latvian / 17,218 kbps
Subtitle: Lithuanian / 18,844 kbps
Subtitle: Polish / 15,679 kbps
Subtitle: Portuguese / 20,712 kbps
Subtitle: Romanian / 18,018 kbps
Subtitle: Russian / 19,532 kbps
Subtitle: Slovenian / 14,891 kbps
Subtitle: Thai / 19,927 kbps
Subtitle: Turkish / 20,387 kbps
Subtitle: Chinese / 39,550 kbps
Subtitle: Chinese / 34,339 kbps
Subtitle: English / 51,364 kbps
* Subtitle: Chinese / 37,548 kbps
[/code]

Скриншоты

       
Other forum [Profile] [PM]
Display posts from previous:    
Reply to topic

The time now is: Today 18:48

All times are GMT + 3 Hours



You cannot post new topics in this forum
You cannot reply to topics in this forum
You cannot edit your posts in this forum
You cannot delete your posts in this forum
You cannot vote in polls in this forum
You cannot attach files in this forum
You cannot download files in this forum