Today is a free download without charge Download

1+1 /Неприкасаемые / Intouchables [ Оливье Накаш, Эрик Толедано / Olivier Nakache, Eric Toledano (2011) Франция, драма, комедия , BDRip 720p |лицензия ]

Reply to topic
 
Author
Message

Delia ®

Gender:

Longevity: 10 years

Posts: 1821

Торрент-статистика

Post 02-Apr-2012 09:01

[Quote]

1+1 / Неприкасаемые / Intouchables--
Год выпуска: 2011
Страна: Франция
Жанр: драма, комедия, ...
Продолжительность: 01:52:02
Перевод: :Профессиональный дублированный
Субтитры: Russian (UTF-8)
Режиссер: Оливье Накаш, Эрик Толедано / Olivier Nakache, Eric Toledano
Сценарий: Оливье Накаш, Эрик Толедано
Продюсер: Николя Дюваль-Адассовски, Лорен Зэйтун, Ян Зеноу, ...
Оператор: Матьё Вадпьед
Композитор: Людовико Эйнауди
Художник: Изабелль Паннетье, Оливия Блох-Лайне
Монтаж: Дориан Ригаль-Ансу- В ролях: Франсуа Клюзе (François Cluzet), Омар Си (Omar Sy), Анн Ле Ни (Anne Le Ny), Одри Флеро (Audrey Fleurot), Клотильд Молле (Clotilde Mollet), Альба Гайя Крагеде Беллуджи (Alba Gaia Kraghede Bellugi), Сирил Менди (Cyril Mendy), Кристиан Амери (Christian Ameri), Грегуар Эстерманн (Gregoire Oestermann), Жозефин де Мо (Josephine de Meaux), Доминик Дагьер (Dominique Daguier), Франсуа Карон (François Caron), Thomas Soliveres, Дороти Бриер (Dorothee Briere), Мари-Лор Дикуру (Marie-Laure Descoureaux), Emilie Caen, Сильвен Лазард (Sylvain Lazard), Жан Франсуа Кэйри (Jean François Cayrey), Йен Фенелон (Ian Fenelon), Рено Барсе (Renaud Barse)
Описание: Пострадав в результате несчастного случая, богатый аристократ Филипп нанимает в помощники человека, который менее всего подходит для этой работы, — молодого жителя предместья Дрисса, только что освободившегося из тюрьмы. Несмотря на то, что Филипп прикован к инвалидному креслу, Дриссу удается привнести в размеренную жизнь аристократа дух приключений.-- --Качество: BDRip720р
Формат: MKV
Видео кодек: H.264 (AVC)
Аудио кодеk: AC3
Видео: 1280x692 (1.850:1), 24.000 fps, AVC, 4 817 Kbps
Аудио: AC3, 448 Kbps, 48.0 KHz, 6 ch RUS
Аудио #3: AC3, 320 Kbps, 48.0 KHz, 3 ch , Ozz.tv

Отдельно на народ.ру
448 Кбит/сек, 48,0 КГц, 16 бит, 6 каналов, AC-3 . FRE

МедиаИнфо

Код:
Общее
Уникальный идентификатор         : 234686699099422698108427923852324628325 (0xB08F039E51848E4887AF8B137529E765)
Полное имя                       : C:\Users\Tatiana\Desktop\Intouchables (2011) BDRip 720p (1) (1).mkv
Формат                           : Matroska
Размер файла                     : 4,37 Гбайт
Продолжительность                : 1 ч. 52 м.
Общий поток                      : 5583 Кбит/сек
Дата кодирования                 : UTC 2012-05-23 21:30:20
Программа кодирования            : mkvmerge v5.4.0 ('Piper') built on Mar 10 2012 13:34:39
Библиотека кодирования           : libebml v1.2.3 + libmatroska v1.3.0
Видео
Идентификатор                    : 1
Формат                           : AVC
Формат/Информация                : Advanced Video Codec
Профиль формата                  : [email protected]
Параметр CABAC формата           : Да
Параметр ReFrames формата        : 9 кадров
Идентификатор кодека             : V_MPEG4/ISO/AVC
Продолжительность                : 1 ч. 52 м.
Битрейт                          : 4817 Кбит/сек
Ширина                           : 1280 пикс.
Высота                           : 692 пикс.
Соотношение сторон               : 1,850
Частота кадров                   : 24,000 кадр/сек
Цветовое пространство            : YUV
Подвыборка цветности             : 4:2:0
Битовая глубина                  : 8 бит
Тип развёртки                    : Прогрессивная
Бит/(Пиксели*Кадры)              : 0.227
Размер потока                    : 3,68 Гбайт (84%)
Библиотека кодирования           : x264 core 122 r2184 5c85e0a
Настройки программы              : cabac=1 / ref=9 / deblock=1:-2:-2 / analyse=0x3:0x113 / me=umh / subme=11 / psy=1 / psy_rd=1.10:0.15 / mixed_ref=1 / me_range=32 / chroma_me=1 / trellis=2 / 8x8dct=1 / cqm=0 / deadzone=21,11 / fast_pskip=0 / chroma_qp_offset=-3 / threads=6 / sliced_threads=0 / nr=0 / decimate=1 / interlaced=0 / bluray_compat=0 / constrained_intra=0 / bframes=7 / b_pyramid=2 / b_adapt=2 / b_bias=0 / direct=3 / weightb=1 / open_gop=0 / weightp=2 / keyint=250 / keyint_min=24 / scenecut=40 / intra_refresh=0 / rc=2pass / mbtree=0 / bitrate=4817 / ratetol=1.0 / qcomp=0.70 / qpmin=0 / qpmax=69 / qpstep=4 / cplxblur=20.0 / qblur=0.5 / ip_ratio=1.40 / pb_ratio=1.30 / aq=2:0.90
Язык                             : English
Аудио #1
Идентификатор                    : 2
Формат                           : AC-3
Формат/Информация                : Audio Coding 3
Расширение режима                : CM (complete main)
Идентификатор кодека             : A_AC3
Продолжительность                : 1 ч. 52 м.
Вид битрейта                     : Постоянный
Битрейт                          : 448 Кбит/сек
Каналы                           : 6 каналов
Расположение каналов             : Front: L C R, Side: L R, LFE
Частота                          : 48,0 КГц
Битовая глубина                  : 16 бит
Метод сжатия                     : С потерями
Размер потока                    : 359 Мбайт (8%)
Заголовок                        : R 5
Язык                             : Russian
Аудио #2
Идентификатор                    : 3
Формат                           : AC-3
Формат/Информация                : Audio Coding 3
Расширение режима                : CM (complete main)
Идентификатор кодека             : A_AC3
Продолжительность                : 1 ч. 52 м.
Вид битрейта                     : Постоянный
Битрейт                          : 320 Кбит/сек
Каналы                           : 3 канала
Расположение каналов             : Front: L C R
Частота                          : 48,0 КГц
Битовая глубина                  : 16 бит
Метод сжатия                     : С потерями
Размер потока                    : 256 Мбайт (6%)
Заголовок                        : Ozz.tv
Язык                             : Russian
Текст
Идентификатор                    : 4
Формат                           : UTF-8
Идентификатор кодека             : S_TEXT/UTF8
Идентификатор кодека/Информация  : UTF-8 Plain Text
Язык                             : Russian
Меню
00:00:00.000                     : en:Chapter 01
00:07:26.000                     : en:Chapter 02
00:12:54.375                     : en:Chapter 03
00:18:56.666                     : en:Chapter 04
00:26:51.958                     : en:Chapter 05
00:30:50.708                     : en:Chapter 06
00:37:26.208                     : en:Chapter 07
00:42:05.666                     : en:Chapter 08
00:48:45.333                     : en:Chapter 09
00:54:26.250                     : en:Chapter 10
00:58:02.708                     : en:Chapter 11
01:04:06.833                     : en:Chapter 12
01:14:27.041                     : en:Chapter 13
01:21:39.833                     : en:Chapter 14
01:29:26.125                     : en:Chapter 15
01:35:56.875                     : en:Chapter 16
01:40:22.041                     : en:Chapter 17
01:45:12.541                     : en:Chapter 18
01:52:01.750                     : en:Chapter 19

Знаете ли Вы, что...

» В основу фильма была положена реальная история французского бизнесмена и аристократа Филиппа Поццо ди Борго, который остался парализованным после несчастного случая 27 июля 1993 года.
» На создание картины режиссёрский дуэт вдохновила увиденная ими в 2004 году документальная лента, в которой рассказывалось о том, как молодой житель предместья был нанят присматривать за парализованным инвалидом Филиппом Поццо ди Борго.
» Сам Филипп Поццо ди Борго рассказал о своей истории в вышедшей в 2001 году книге «Второй шанс», которая также послужила источником для сценария картины.
» Первоначальным выбором на роль Филиппа Поццо ди Борго был Даниель Отой.
» Несмотря на то, что ему пришлось играть совершенно обычного человека, Омар Сай сбросил при подготовке к съёмкам почти пять килограммов веса. Актёр посчитал, что стандартный житель предместья с такой предысторией должен обладать более атлетическим телосложением, чем он.
» Перед началом работы над проектом режиссёры Оливье Накаш и Эрик Толедано лично посетили живущего в Марокко Филиппа Поццо ди Борго. Знакомство с ним и произнесенная им речь многократно увеличили их желание поставить фильм на основе его истории. Сам Филипп Поццо ди Борго дал им огромное количество информации и советов практически по каждой сцене картины.
» Незадолго до начала съёмок Франсуа Клюзе лично посетил Филиппа Поццо ди Борго с тем, чтобы получить необходимую информацию для своей роли. В течение некоторого времени актёр наблюдал за его манерой движений, дыхания и речи.
» На том, чтобы в первую очередь сделать фильм комедией, а не драмой усиленно настаивал сам Филипп Поццо ди Борго. Он не хотел, чтобы основанный на его жизни фильм стал историей сострадания и жалости.
» Омар Сай был первым приглашён на роль в фильме ещё до того, как был написан сценарий.


Скриншоты

     
     

_________________
Человек – это канат, натянутый между животным и сверхчеловеком, – канат над пропастью.
В человеке ценно то, что он мост, а не цель. Фридрих Ницше


Last edited by Delia on 2012-05-24 00:59; edited 4 times in total
Other forum [Profile] [PM]

Delia ®

Gender:

Longevity: 10 years

Posts: 1821

Торрент-статистика

Post 14-Apr-2012 15:16 (after 12 days)

[Quote]

Заменена на лицензионную дорожку.

_________________
Человек – это канат, натянутый между животным и сверхчеловеком, – канат над пропастью.
В человеке ценно то, что он мост, а не цель. Фридрих Ницше
Other forum [Profile] [PM]

Thinker

Gender:

Longevity: 9 years

Posts: 24

Торрент-статистика

Post 24-May-2012 14:49 (after 1 month 9 days)

[Quote]

Спасибо! Фильм отличный.

_________________



Любая проблема - это замаскированная возможность.
Other forum [Profile] [PM]

barsik

Gender:

Longevity: 8 years 8 months

Posts: 1

Location: Омск

Торрент-статистика

Post 07-Jan-2013 03:03 (after 7 months 13 days)

[Quote]

Спасибо !!!
Other forum [Profile] [PM]
Display posts from previous:    
Reply to topic

The time now is: Today 03:22

All times are GMT + 3 Hours



You cannot post new topics in this forum
You cannot reply to topics in this forum
You cannot edit your posts in this forum
You cannot delete your posts in this forum
You cannot vote in polls in this forum
You cannot attach files in this forum
You cannot download files in this forum