Today is a free download without charge Download

Ох, уж эта Настя! (Юрий Победоносцев) [1971, Детский, Приключения, DVDRip]

Reply to topic
 
Author
Message

sashau ®

Gender:

Longevity: 9 years 6 months

Posts: 3497

Торрент-статистика

Post 25-Mar-2015 10:13

[Quote]

Ох, уж эта Настя! -- Производство: СССР
Жанр: Детский, Приключения
Режиссер: Юрий Победоносцев
Актеры: Ира Волкова, Таня Невская, Сережа Кусков, Наталья Гвоздикова, Александр Харитонов, Нина Архипова, Елена Габриелова, С.Котикова, Наталья Егорова
Описание фильма:
Веселая и поучительная история про школьницу Настю Рябинину, которой не интересно жить, как все. Она все время что-то выдумывает и рассказывает.

Продолжительность: 01:12:34
Качество видео: DVDRip
Видеокодек: AVC/H.264
Битрейт видео: ~1450 Kbps
Размер кадра: 720x432
Аудиокодек: AC3 2.0
Битрейт аудио: 160 kbps

MediaInfo

Код:
General
Unique ID                      : 170459514031829029346279929977184354030 (0x803D4EE8AED3C0AF8E0AD1D42E567EEE)
Complete name                  : Ох уж эта Настя.mkv
Format                         : Matroska
Format version                 : Version 4 / Version 2
File size                      : 838 MiB
Duration                       : 1h 12mn
Overall bit rate               : 1 614 Kbps
Movie name                     : Ох, уж эта Настя! (rip by smithland)
Encoded date                   : UTC 2010-02-22 21:41:31
Writing application            : mkvmerge v5.9.0 ('On The Loose')
Writing library                : libebml v1.3.0 + libmatroska v1.4.0
Attachements                   : cover.png
Video
ID                             : 1
Format                         : AVC
Format/Info                    : Advanced Video Codec
Format profile                 : [url=mailto:[email protected]][email protected][/url]
Format settings, CABAC         : Yes
Format settings, ReFrames      : 10 frames
Codec ID                       : V_MPEG4/ISO/AVC
Duration                       : 1h 12mn
Bit rate                       : 1 450 Kbps
Width                          : 720 pixels
Height                         : 432 pixels
Display aspect ratio           : 1.667
Frame rate mode                : Constant
Frame rate                     : 25.000 fps
Color space                    : YUV
Chroma subsampling             : 4:2:0
Bit depth                      : 8 bits
Scan type                      : Progressive
Bits/(Pixel*Frame)             : 0.186
Stream size                    : 738 MiB (88%)
Writing library                : x264 core 130 r2273 b3065e6
Encoding settings              : cabac=1 / ref=10 / deblock=1:-1:1 / analyse=0x3:0x133 / me=umh / subme=11 / psy=1 / psy_rd=1.05:0.20 / mixed_ref=1 / me_range=28 / chroma_me=1 / trellis=2 / 8x8dct=1 / cqm=0 / deadzone=21,11 / fast_pskip=0 / chroma_qp_offset=-3 / threads=12 / lookahead_threads=1 / sliced_threads=0 / nr=0 / decimate=0 / interlaced=0 / bluray_compat=0 / constrained_intra=0 / bframes=6 / b_pyramid=2 / b_adapt=1 / b_bias=0 / direct=1 / weightb=1 / open_gop=1 / weightp=2 / keyint=250 / keyint_min=25 / scenecut=40 / intra_refresh=0 / rc_lookahead=50 / rc=abr / mbtree=1 / bitrate=1450 / ratetol=1.0 / qcomp=0.60 / qpmin=0 / qpmax=69 / qpstep=4 / ip_ratio=1.41 / aq=1:1.10
Language                       : Russian
Default                        : Yes
Forced                         : Yes
Color primaries                : Generic film
Color range                    : Limited
Audio
ID                             : 2
Format                         : AC-3
Format/Info                    : Audio Coding 3
Mode extension                 : CM (complete main)
Format settings, Endianness    : Big
Codec ID                       : A_AC3
Duration                       : 1h 12mn
Bit rate mode                  : Constant
Bit rate                       : 160 Kbps
Channel(s)                     : 2 channels
Channel positions              : Front: L R
Sampling rate                  : 48.0 KHz
Bit depth                      : 16 bits
Compression mode               : Lossy
Stream size                    : 83.0 MiB (10%)
Language                       : Russian
Default                        : Yes
Forced                         : Yes
Скриншоты:
Проведена работа по очистке аудио и видео от фоновых шумов
       
Other forum [Profile] [PM]
Display posts from previous:    
Reply to topic

The time now is: Today 15:51

All times are GMT + 3 Hours



You cannot post new topics in this forum
You cannot reply to topics in this forum
You cannot edit your posts in this forum
You cannot delete your posts in this forum
You cannot vote in polls in this forum
You cannot attach files in this forum
You cannot download files in this forum