Today is a free download without charge Download

Спаун / Spawn (Марк А.З. Диппе / Mark A.Z. Dipp) [1997 г., Боевик,Фэнтези, DVD9]

Reply to topic
 
Author
Message

Стасмэн ®

Gender:

Longevity: 10 years

Posts: 133

Торрент-статистика

Post 01-Apr-2012 20:23

[Quote]

Спаун / Spawn
Год выпуска: 1997
Страна: США
Жанр: Боевик,Фэнтези
Продолжительность: 01:32:36
Перевод: Профессиональный (многоголосый закадровый) + Одноголосый (Гаврилов)
Режиссер: Марк А.З. Диппе / Mark A.Z. Dipp
В ролях: Джон Легуизамо, Мартин Шин, Тереза Рэндл, Майко Хьюз, Д.Б. Суини, Майкл Джэй Уайт, Мелинда Кларк, Никол Уильямсон, Сидни Бодуан...
Описание: «Краповый берет» Эл Симмонс убит своим начальником во время выполнения очередной миссии. Попав в чистилище, он заключает сделку с Дьяволом. Сатана дает ему силу, доспехи и оружие,в обмен на то, чтобы еще раз увидеть свою жену, Симмонс должен предварить приход сил Зла на Землю. Оказавшись на свободе, он разрывает контракт в одностороннем порядке…


Качество: DVD9
Формат: DVD Video
Видео кодек: MPEG2
Аудио кодек: DTS,AC3
Видео: PAL 16:9 (720x576) VBR Auto Letterboxed, ~ 25.000 fps; ~ 7826.24 kbps avg
Аудио:
Audio #1: Russian AC3, 3/2 (L,C,R,SL,SR)+LFE ch, 384 kbps, Delay 0 mSec Многоголосый
Audio #2: Russian DTS, 3/2 (L,C,R,SL,SR), 768 kbps, Delay 0 mSec Гаврилов
Audio #3: English AC3, 3/2 (L,C,R,SL,SR)+LFE ch, 384 kbps, Delay 0 mSec
Audio #4: English DTS, 3/2 (L,C,R,SL,SR), 768 kbps, Delay 0 mSec
Субтитры: русские,французские,голландские.

MediaInfo

Код:
Полное имя                               : G:\DVD\Спаун DVD9\VTS_01_1.VOB
Формат                                   : MPEG-PS
Размер файла                             : 1024 Мбайт
Продолжительность                        : 19 м.
Режим общего битрейта                    : Переменный
Общий поток                              : 7365 Кбит/сек
Видео
Идентификатор                            : 224 (0xE0)
Формат                                   : MPEG Video
Версия формата                           : Version 2
Профиль формата                          : [email protected]
Параметр BVOP формата                    : Да
Параметр матрицы формата                 : По умолчанию
Параметр GOP формата                     : M=3, N=13
Продолжительность                        : 19 м.
Вид битрейта                             : Переменный
Битрейт                                  : 4942 Кбит/сек
Максимальный битрейт                     : 7000 Кбит/сек
Ширина                                   : 720 пикселей
Высота                                   : 576 пикселей
Соотношение сторон                       : 2,35:1
Частота кадров                           : 25,000 кадров/сек
Стандарт вещания                         : PAL
Цветовое пространство                    : YUV
Субдискретизация насыщенности            : 4:2:0
Битовая глубина                          : 8 бит
Тип развёртки                            : Чересстрочная
Порядок развёртки                        : Верхнее поле первое
Метод сжатия                             : С потерями
Бит/(Пиксели*Кадры)                      : 0.477
Размер потока                            : 687 Мбайт (67%)
Основные цвета                           : BT.470-2 System B, BT.470-2 System G
Характеристики трансфера                 : BT.470-2 System B, BT.470-2 System G
Коэффициенты матрицы                     : BT.470-2 System B, BT.470-2 System G
Аудио #1
Идентификатор                            : 189 (0xBD)-128 (0x80)
Формат                                   : AC-3
Формат/Информация                        : Audio Coding 3
Расширение режима                        : CM (complete main)
Режим смешивания                         : DVD-Video
Продолжительность                        : 19 м.
Вид битрейта                             : Постоянный
Битрейт                                  : 384 Кбит/сек
Каналы                                   : 6 каналов
Расположение каналов                     : Front: L C R, Side: L R, LFE
Частота                                  : 48,0 КГц
Битовая глубина                          : 16 бит
Метод сжатия                             : С потерями
Размер потока                            : 53,4 Мбайт (5%)
Аудио #2
Идентификатор                            : 189 (0xBD)-130 (0x82)
Формат                                   : AC-3
Формат/Информация                        : Audio Coding 3
Расширение режима                        : CM (complete main)
Режим смешивания                         : DVD-Video
Продолжительность                        : 19 м.
Вид битрейта                             : Постоянный
Битрейт                                  : 384 Кбит/сек
Каналы                                   : 6 каналов
Расположение каналов                     : Front: L C R, Side: L R, LFE
Частота                                  : 48,0 КГц
Битовая глубина                          : 16 бит
Метод сжатия                             : С потерями
Размер потока                            : 53,4 Мбайт (5%)
Аудио #3
Идентификатор                            : 189 (0xBD)-137 (0x89)
Формат                                   : DTS
Формат/Информация                        : Digital Theater Systems
Режим смешивания                         : DVD-Video
Продолжительность                        : 19 м.
Вид битрейта                             : Постоянный
Битрейт                                  : 755 Кбит/сек
Каналы                                   : 6 каналов
Расположение каналов                     : Front: L C R, Side: L R, LFE
Частота                                  : 48,0 КГц
Битовая глубина                          : 24 бит
Метод сжатия                             : С потерями
Размер потока                            : 105 Мбайт (10%)
Аудио #4
Идентификатор                            : 189 (0xBD)-139 (0x8B)
Формат                                   : DTS
Формат/Информация                        : Digital Theater Systems
Режим смешивания                         : DVD-Video
Продолжительность                        : 19 м.
Вид битрейта                             : Постоянный
Битрейт                                  : 755 Кбит/сек
Каналы                                   : 5 каналов
Расположение каналов                     : Front: L C R, Side: L R
Частота                                  : 48,0 КГц
Битовая глубина                          : 16 бит
Метод сжатия                             : С потерями
Размер потока                            : 105 Мбайт (10%)

DVDInfo

Код:
Title: Спаун DVD9
Size: 7.09 Gb ( 7 432 322,00 KBytes ) - DVD-9
Enabled regions: 1, 2, 3, 4, 5, 6, 7, 8
VTS_01 :
  Play Length: 01:32:35+00:00:01
  Video: PAL 16:9 (720x576) VBR, Auto Letterboxed
  Audio:
      Russian (Dolby AC3, 6 ch)
      Russian (DTS, 6 ch)
      English (Dolby AC3, 6 ch)
      English (DTS, 5 ch)
  Subtitles:
      Russian
      Francais
      Nederlands
VTS_02 :
  Play Length: 00:00:18
  Video: PAL 16:9 (720x576) VBR, Auto Letterboxed
  Audio:
      Russian (Dolby AC3, 6 ch)
      Russian (DTS, 6 ch)
      English (Dolby AC3, 6 ch)
      English (DTS, 6 ch)
  Subtitles:
      Russian
      Francais
      Nederlands
VTS_03 :
  Play Length: 00:00:01+00:21:42+00:00:01+00:00:01+00:19:16+00:00:01
  Video: PAL 4:3 (720x576) VBR
  Audio:
      Not specified (Dolby AC3, 2 ch)
  Subtitles:
      Francais
      Nederlands
VTS_04 :
  Play Length: 00:00:01+00:12:13+00:00:01
  Video: PAL 16:9 (720x576) VBR, Auto Letterboxed
  Audio:
      Francais (Dolby AC3, 2 ch)
  Subtitles:
      Francais
      Nederlands
VTS_05 :
  Play Length: 00:00:01+00:01:43+00:00:01
  Video: PAL 4:3 (720x576) VBR
  Audio:
      Not specified (Dolby AC3, 2 ch)
VTS_06 :
  Play Length: 00:00:19
  Video: PAL 16:9 (720x576) VBR, Auto Letterboxed
  Audio:
      Francais (Dolby AC3, 2 ch)

Скриншоты Меню

     

Скриншоты

         
Other forum [Profile] [PM]
Display posts from previous:    
Reply to topic

The time now is: Today 19:26

All times are GMT + 3 Hours



You cannot post new topics in this forum
You cannot reply to topics in this forum
You cannot edit your posts in this forum
You cannot delete your posts in this forum
You cannot vote in polls in this forum
You cannot attach files in this forum
You cannot download files in this forum