Today is a free download without charge Download

Время ведьм / Season of the Witch (Доминик Сена / Dominic Sena) [2010 г., США, фэнтези, боевик, приключения, BDRip 720]

Reply to topic
 
Author
Message

BoxeR ®

Gender:

Longevity: 8 years 8 months

Posts: 423

Торрент-статистика

Post 01-Apr-2012 14:30

[Quote]

Время ведьм / Season of the Witch
Год выпуска: 2010
Страна: США
Жанр: фэнтези, боевик, приключения
Продолжительность: 01:34:37
Перевод: Профессиональный (полное дублирование)
Режиссер: Доминик Сена / Dominic Sena
В ролях: Николас Кейдж, Рон Перлман, Стивен Кэмпбелл Мур, Стивен Грэм, Ульрих Томсен, Клер Фой, Роберт Шиэн, Кристофер Ли, Ребека Кеннеди, Эндрю Хефлер
Описание: XIV столетие. В Европе свирепствует чума. Виновницей смертоносной беды признают беззащитную девушку, подозревая ее в колдовстве. Умирающий кардинал просит рыцаря Бэймена доставить ведьму в далекое аббатство, где ее чары должны быть разрушены.
Семеро верховых и повозка с железной клеткой, в которой заточена обвиняемая, отправляются в опасное путешествие. Скоро рыцари осознают, их миловидная спутница действительно не человек, а исчадие ада.

Ripped by Mike Tyson

Качество: BDRip 720
Формат: MKV
Видео кодек: H.26x
Аудио кодек: AC3
Видео: 1280 x 720 (1.778) at 23.976 fps, 2783 Кбит/сек
Аудио: AC-3 at 384 Кбит/сек, 6 каналов, 48,0 КГц

MediaInfo

Общее
Уникальный идентификатор : 192754770721238406060586512900545766697 (0x910337EEAB506388190CDAC80866E529)
Полное имя : D:\ФИЛЬМЫ\Время Ведьм (R.G. 20th Century Fox).mkv
Формат : Matroska
Версия формата : Version 2
Размер файла : 2,14 Гбайт
Продолжительность : 1 ч. 34 м.
Общий поток : 3232 Кбит/сек
Программа кодирования : XviD4PSP 6.0 / 53.6.0
Библиотека кодирования : XviD4PSP 6.0 / 53.6.0
Видео
Идентификатор : 1
Формат : AVC
Формат/Информация : Advanced Video Codec
Профиль формата : [email protected]
Параметр CABAC формата : Да
Параметр ReFrames формата : 3 кадра
Идентификатор кодека : V_MPEG4/ISO/AVC
Продолжительность : 1 ч. 34 м.
Битрейт : 2783 Кбит/сек
Номинальный битрейт : 3000 Кбит/сек
Ширина : 1280 пикселей
Высота : 720 пикселей
Соотношение сторон : 16:9
Режим частоты кадров : Переменный
Частота кадров : 23,976 кадра/сек
Цветовое пространство : YUV
Субдискретизация насыщенности : 4:2:0
Битовая глубина : 8 бит
Тип развёртки : Прогрессивная
Бит/(Пиксели*Кадры) : 0.126
Размер потока : 1,84 Гбайт (86%)
Заголовок : Время ведьм.
Библиотека кодирования : x264 core 116 r2019M 9cc407d
Настройки программы : cabac=1 / ref=3 / deblock=1:0:0 / analyse=0x3:0x133 / me=hex / subme=7 / psy=1 / psy_rd=1.00:0.20 / mixed_ref=1 / me_range=16 / chroma_me=1 / trellis=1 / 8x8dct=1 / cqm=0 / deadzone=21,11 / fast_pskip=1 / chroma_qp_offset=-3 / threads=6 / sliced_threads=0 / nr=0 / decimate=1 / interlaced=0 / bluray_compat=0 / constrained_intra=0 / bframes=3 / b_pyramid=1 / b_adapt=2 / b_bias=0 / direct=3 / weightb=1 / open_gop=0 / weightp=2 / keyint=230 / keyint_min=23 / scenecut=40 / intra_refresh=0 / rc_lookahead=40 / rc=cbr / mbtree=1 / bitrate=3000 / ratetol=1.0 / qcomp=0.60 / qpmin=10 / qpmax=51 / qpstep=4 / vbv_maxrate=3000 / vbv_bufsize=3000 / nal_hrd=none / ip_ratio=1.40 / aq=1:1.00
Язык : English
Default : Да
Forced : Нет
Аудио
Идентификатор : 2
Формат : AC-3
Формат/Информация : Audio Coding 3
Расширение режима : CM (complete main)
Идентификатор кодека : A_AC3
Продолжительность : 1 ч. 34 м.
Вид битрейта : Постоянный
Битрейт : 384 Кбит/сек
Каналы : 6 каналов
Расположение каналов : Front: L C R, Side: L R, LFE
Частота : 48,0 КГц
Битовая глубина : 16 бит
Метод сжатия : С потерями
Размер потока : 260 Мбайт (12%)
Заголовок : Профессиональный (дублированный)
Язык : Russian
Default : Да
Forced : Нет

Скриншоты

         


Last edited by BoxeR on 2012-05-15 21:48; edited 3 times in total
Other forum [Profile] [PM]

Koralina

Longevity: 9 years 3 months

Posts: 994

Location: Lithuania

Торрент-статистика

Post 01-Apr-2012 22:15 (after 7 hours)

[Quote]

Mike Tyson, добавьте в тему MediaInfo.

_________________
Other forum [Profile] [PM]
Display posts from previous:    
Reply to topic

The time now is: Today 23:04

All times are GMT + 3 Hours



You cannot post new topics in this forum
You cannot reply to topics in this forum
You cannot edit your posts in this forum
You cannot delete your posts in this forum
You cannot vote in polls in this forum
You cannot attach files in this forum
You cannot download files in this forum