Today is a free download without charge Download

Случайный муж / The Accidental Husband [ Гриффин Данн (2008) мелодрама, комедия , BDRip 720p ]

Reply to topic
 
Author
Message

Delia ®

Gender:

Longevity: 11 years

Posts: 1821

Торрент-статистика

Post 01-Apr-2012 09:46

[Quote]

Случайный муж / The Accidental Husband«Falling in love... even the expert is confused.»--
Год выпуска: 2008
Страна: США , Ирландия
Жанр: мелодрама, комедия, ...
Продолжительность: 01:30:36
Перевод: Профессиональный (дублированный)
Субтитры: Русские, английские (srt)
Режиссер: Гриффин Данн
Сценарий: Мими Хэа, Клер Нэйлор, Бонни Шнайдер
Продюсер: Джейсон Блум, Бредли Дженкель, Нил Кадиша, ...
Оператор: Уильям Рексер
Композитор: Андреа Гуэрра
Художник: Марк Рикер, Бен Барро, Дэвид С. Робинсон, ...
Монтаж: Сьюзи Элмигер- В ролях: Ума Турман (Uma Thurman), Колин Фёрт (Colin Firth), Джеффри Дин Морган (Jeffrey Dean Morgan), Сэм Шепард (Sam Shepard), Линдсэй Слоун (Lindsay Sloane), Жустина Мачадо (Justina Machado), Ник Сэндоу (Nick Sandow), Кир Дулли (Keir Dullea), Шерман Элперт (Sherman Alpert), Химад Бег (Himad Beg), Девика Бисе (Devika Bhise), Джеймс Томас Блиф (James Thomas Bligh), Джей Чаран (Jay Charan), Сарита Чоудхури (Sarita Choudhury), Хадсон Купер (Hudson Cooper), Гари Коулинг (Gary Cowling), Джозеф ДеБона (Joseph DeBona), Kevin Dhaniram, Келли Эбсари (Kelly Ebsary), Одри Элизабет Фафард (Audrey Elizabeth Fafard)
Описание: Эмма — успешный «нью-йоркский психолог» по любовным вопросам. У нее свое популярное радиошоу и готовящаяся к выходу в свет новая книга-бестселлер. Она умна, серьезна и точно знает, о чем говорит, давая женщинам советы, как найти свою любовь, не тратя при этом время впустую на «недостойных мужчин».Познакомившись с Ричардом, умным и успешным главным редактором издательства, она уверена, что встретила мужчину своей мечты. Но когда они обручаются, она узнает, что уже замужем! Невозможно?! Эмма находит своего «супруга», и знакомство с ним расставляет все точки над «I».-Рейтинг MPAA: -- --Качество: BDRip
Формат: MKV
Видео кодек: H.264 (AVC)
Аудио кодеk: AC3
Видео: 1280x690 (1.855:1), 23.976 fps, AVC, 6 084 Kbps
Аудио: AC3, 448 Kbps, 48.0 KHz, 6 ch RUS Dub
Аудио : AC3, 384 Kbps, 48.0 KHz, 6 ch ENG

МедиаИнфо

Код:
General
Complete name                    : Sluchajnyj.muzh.2008.BDRip720p-F.HD.mkv
Format                           : Matroska
File size                        : 4.37 GiB
Duration                         : 1h 30mn
Overall bit rate                 : 6 901 Kbps
Encoded date                     : UTC 2012-03-31 21:21:14
Writing application              : mkvmerge v5.4.0 ('Piper') built on Mar 10 2012 13:34:39
Writing library                  : libebml v1.2.3 + libmatroska v1.3.0
Video
ID                               : 1
Format                           : AVC
Format/Info                      : Advanced Video Codec
Format profile                   : [email protected]
Format settings, CABAC           : Yes
Format settings, ReFrames        : 9 frames
Format settings, GOP             : M=9, N=32
Muxing mode                      : Container [email protected]
Codec ID                         : V_MPEG4/ISO/AVC
Duration                         : 1h 30mn
Bit rate                         : 6 084 Kbps
Width                            : 1 280 pixels
Height                           : 690 pixels
Display aspect ratio             : 1.855
Frame rate                       : 23.976 fps
Color space                      : YUV
Chroma subsampling               : 4:2:0
Bit depth                        : 8 bits
Scan type                        : Progressive
Bits/(Pixel*Frame)               : 0.287
Stream size                      : 3.75 GiB (86%)
Title                            : FREEISLAND
Writing library                  : x264 core 122 r2184 5c85e0a
Encoding settings                : cabac=1 / ref=9 / deblock=1:-3:-2 / analyse=0x3:0x113 / me=umh / subme=10 / psy=1 / psy_rd=1.10:0.10 / mixed_ref=1 / me_range=32 / chroma_me=1 / trellis=2 / 8x8dct=1 / cqm=0 / deadzone=21,11 / fast_pskip=0 / chroma_qp_offset=-3 / threads=6 / sliced_threads=0 / nr=0 / decimate=0 / interlaced=0 / bluray_compat=0 / constrained_intra=0 / bframes=8 / b_pyramid=2 / b_adapt=2 / b_bias=0 / direct=3 / weightb=1 / open_gop=0 / weightp=2 / keyint=230 / keyint_min=23 / scenecut=40 / intra_refresh=0 / rc=2pass / mbtree=0 / bitrate=6084 / ratetol=1.0 / qcomp=0.70 / qpmin=0 / qpmax=69 / qpstep=4 / cplxblur=20.0 / qblur=0.5 / ip_ratio=1.40 / pb_ratio=1.30 / aq=1:0.90
Color primaries                  : BT.709-5, BT.1361, IEC 61966-2-4, SMPTE RP177
Transfer characteristics         : BT.709-5, BT.1361
Matrix coefficients              : BT.709-5, BT.1361, IEC 61966-2-4 709, SMPTE RP177
Audio #1
ID                               : 2
Format                           : AC-3
Format/Info                      : Audio Coding 3
Mode extension                   : CM (complete main)
Codec ID                         : A_AC3
Duration                         : 1h 30mn
Bit rate mode                    : Constant
Bit rate                         : 448 Kbps
Channel(s)                       : 6 channels
Channel positions                : Front: L C R, Side: L R, LFE
Sampling rate                    : 48.0 KHz
Bit depth                        : 16 bits
Stream size                      : 290 MiB (6%)
Language                         : Russian
Audio #2
ID                               : 3
Format                           : AC-3
Format/Info                      : Audio Coding 3
Mode extension                   : CM (complete main)
Codec ID                         : A_AC3
Duration                         : 1h 30mn
Bit rate mode                    : Constant
Bit rate                         : 384 Kbps
Channel(s)                       : 6 channels
Channel positions                : Front: L C R, Side: L R, LFE
Sampling rate                    : 48.0 KHz
Bit depth                        : 16 bits
Stream size                      : 249 MiB (6%)
Text #1
ID                               : 4
Format                           : UTF-8
Codec ID                         : S_TEXT/UTF8
Codec ID/Info                    : UTF-8 Plain Text
Language                         : Russian
Text #2
ID                               : 5
Format                           : UTF-8
Codec ID                         : S_TEXT/UTF8
Codec ID/Info                    : UTF-8 Plain Text


Скриншоты

     
     

_________________
Человек – это канат, натянутый между животным и сверхчеловеком, – канат над пропастью.
В человеке ценно то, что он мост, а не цель. Фридрих Ницше
Other forum [Profile] [PM]
Display posts from previous:    
Reply to topic

The time now is: Today 19:11

All times are GMT + 3 Hours



You cannot post new topics in this forum
You cannot reply to topics in this forum
You cannot edit your posts in this forum
You cannot delete your posts in this forum
You cannot vote in polls in this forum
You cannot attach files in this forum
You cannot download files in this forum