Today is a free download without charge Download

Живая вода (Владимир Самсонов) [1977, Рисованный мультфильм, WEBRip]

Reply to topic
 
Author
Message

Omen ®

Longevity: 8 years 11 months

Posts: 181086

Торрент-статистика

Post 22-Mar-2015 21:00

[Quote]

Живая вода
Страна: СССР
Жанр: Рисованный мультфильм
Продолжительность: 00:09:33
Год выпуска: 1977
Русские субтитры: нет
Режиссёр: Владимир Самсонов
Описание: Мультфильм - рассказ об отношении человека к природе, об их неразрывной связи. Одинокий человек живет в лесу. Когда-то красивый здоровый городской парень просто приехал на природу отдохнуть со своей собакой. И мир перевернулся для него. Здесь все было иначе, здесь ничего не было и было все. Кровь от укола на пальце останавливала вода в реке. Зонтиком служила обыкновенная лодка. Он почувствовал всю силу и целебную мощь леса и навсегда решил остаться здесь. Постепенно выстроился дом, парень обжился, и одиночество стало его судьбой, а природа - семьей. Он понял, что человеку нужно для счастья слишком мало. Проходили годы, молодость прошла. Перед нами уже убеленный старик. И все тот же лес, все то же озеро и пес у ног вроде тот же. Но однажды в это место забрела молодая девушка. Кто она?
Доп. информация: ТО«Экран»
сценарист А. Волков
художник-постановщик Игорь Макаров
оператор Эрнст Гаман
композитор Эдуард Артемьев
Чистка звука Xfiles
Качество: WEBRip
Формат: AVI
Видео: 704x528 (1.33:1), 25 fps, XviD MPEG-4 ~1894 kbps avg, 0.20 bit/pixel
Аудио: 48 kHz, AC3 Dolby Digital, 1/0 (C) ch, ~128.00 kbps avg
Субтитры: нет

Подробные технические данные

Format : AVIFormat/Info : Audio Video InterleaveFile size : 139 MiBDuration : 9mn 33sOverall bit rate : 2 032 KbpsWriting application : VirtualDubMod 1.8.16.2 (build 2642/release)Writing library : VirtualDubMod build 2642/release
VideoID : 0Format : MPEG-4 VisualFormat profile : Advanced [email protected] settings, BVOP : 2Format settings, QPel : NoFormat settings, GMC : No warppointsFormat settings, Matrix : CustomCodec ID : XVIDCodec ID/Hint : XviDDuration : 9mn 33sBit rate : 1 894 KbpsWidth : 704 pixelsHeight : 528 pixelsDisplay aspect ratio : 4:3Frame rate : 25.000 fpsColor space : YUVChroma subsampling : 4:2:0Bit depth : 8 bitsScan type : ProgressiveCompression mode : LossyBits/(Pixel*Frame) : 0.204Stream size : 130 MiB (93%)Writing library : XviD 65
AudioID : 1Format : AC-3Format/Info : Audio Coding 3Mode extension : CM (complete main)Format settings, Endianness : BigCodec ID : 2000Duration : 9mn 32sBit rate mode : ConstantBit rate : 128 KbpsChannel(s) : 1 channelChannel positions : Front: CSampling rate : 48.0 KHzBit depth : 16 bitsCompression mode : LossyStream size : 8.73 MiB (6%)Alignment : Split accross interleavesInterleave, duration : 40 ms (1.00 video frame)Interleave, preload duration : 500 ms

Скриншоты

Other forum [Profile] [PM]
Display posts from previous:    
Reply to topic

The time now is: Today 00:37

All times are GMT + 3 Hours



You cannot post new topics in this forum
You cannot reply to topics in this forum
You cannot edit your posts in this forum
You cannot delete your posts in this forum
You cannot vote in polls in this forum
You cannot attach files in this forum
You cannot download files in this forum