Today is a free download without charge Download

Война / Sõda (Рихо Унт, Харди Волмер) [1987, Объемно-комбинированный, DVDRip]

Reply to topic
 
Author
Message

Omen ®

Longevity: 7 years 11 months

Posts: 181087

Торрент-статистика

Post 22-Mar-2015 00:00

[Quote]

Война / Sõda
Страна: CCCР
Жанр: Объемно-комбинированный
Продолжительность: 00:16:37
Год выпуска: 1987
Перевод: Не требуется
Русские субтитры: нет
Режиссёр: Рихо Унт, Харди Волмер
Описание: Маленькая летучая мышь обитает в старой мельнице, никому не мешая. Она вполне довольна своей размеренной одинокой жизнью и не сознает того, что за стенами гремит война. Но все меняется, когда в ее жилище вторгаются наглые и жестокие захватчики...
Доп. информация: «Таллиннфильм»
Качество: DVDRip
Формат: AVI
Видео: 640x480 (1.33:1), 25 fps, XviD build 50 ~1538 kbps avg, 0.20 bit/pixel
Аудио: 48 kHz, AC3 Dolby Digital, 2/0 (L,R) ch, ~256.00 kbps avg
Субтитры: нет

Подробные технические данные

VideoID : 0Format : MPEG-4 VisualFormat profile : Advanced [email protected] settings, BVOP : 2Format settings, QPel : NoFormat settings, GMC : No warppointsFormat settings, Matrix : Default (MPEG)Codec ID : XVIDCodec ID/Hint : XviDDuration : 16mn 37sBit rate : 1 538 KbpsWidth : 640 pixelsHeight : 480 pixelsDisplay aspect ratio : 4:3Frame rate : 25.000 fpsColor space : YUVChroma subsampling : 4:2:0Bit depth : 8 bitsScan type : ProgressiveCompression mode : LossyBits/(Pixel*Frame) : 0.200Stream size : 183 MiB (85%)Writing library : XviD 1.2.1 (UTC 2008-12-04)
AudioID : 1Format : AC-3Format/Info : Audio Coding 3Mode extension : CM (complete main)Format settings, Endianness : BigCodec ID : 2000Duration : 16mn 37sBit rate mode : ConstantBit rate : 256 KbpsChannel(s) : 2 channelsChannel positions : Front: L RSampling rate : 48.0 KHzBit depth : 16 bitsCompression mode : LossyStream size : 30.4 MiB (14%)Alignment : Split accross interleavesInterleave, duration : 40 ms (1.00 video frame)Interleave, preload duration : 500 msLanguage : Не определен

Скриншоты

Other forum [Profile] [PM]
Similar theme
Forum Topic Author Torrent Replies Last Post
./templates/default/images/folder_dl.gif Антология зарубежного кино Двойная рокировка: Трилогия / Infernal Affairs / Mou gaan dou: Trilogy (1999-2003) BDRip [H.264/720p-LQ] [Hi10P] Omen
1 | 0

0 | 2979

17

2014-01-05 23:12
Omen Latest
Display posts from previous:    
Reply to topic

The time now is: Today 14:33

All times are GMT + 3 Hours



You cannot post new topics in this forum
You cannot reply to topics in this forum
You cannot edit your posts in this forum
You cannot delete your posts in this forum
You cannot vote in polls in this forum
You cannot attach files in this forum
You cannot download files in this forum