Today is a free download without charge Download

Хромая уточка / Кривенька качечка (Алла Грачова) [1992, Рисованный мультфильм, DVDRip] DUB + MVO + UKR

Reply to topic
 
Author
Message

Omen ®

Longevity: 7 years 11 months

Posts: 181087

Торрент-статистика

Post 21-Mar-2015 21:01

[Quote]

Хромая уточка / Кривенька качечка
Страна: Украина
Жанр: Рисованный мультфильм
Продолжительность: 00:09:27
Год выпуска: 1992
Перевод 1: Профессиональный (дублированный)
Перевод 2: Профессиональный (закадровый)
Перевод 3: Украинский (оригинал)
Русские субтитры: нет
Режиссёр: Алла Грачова
Роли озвучивали: Л. Козуб, В. Коршун, О. Коваленко
Описание: Мультфильм по мотивам украинских сказок. Одинокие дед и баба приняли себе за дочку хромую уточку…
Доп. информация: Производство: «Укранимафильм».
Автор сценария: А. Грачова
Художник-постановник: М. Чурилов
Композитор: Ю. Шевченко
Кинооператор: А. Гаврилов
Звукооператор: И. Погон
Художники-аниматоры: А. Грачова, К. Чикин, В. Врублевський
Качество: DVDRip
Формат: AVI
Видео: 704x528 (1.33:1), 25 fps, XviD MPEG-4 ~2196 kbps avg, 0.24 bit/pixel
Аудио 1: 48 kHz, MPEG Layer 3, 2 ch, ~192.00 kbps avg DUB
Аудио 2: 48 kHz, AC3 Dolby Digital, 2/0 ch, ~192.00 kbps avg MVO
Аудио 3: 48 kHz, MPEG Layer 3, 2 ch, ~224.00 kbps avg UKR (оригинал)
Субтитры: нет

Подробные технические данные

Format : AVIFormat/Info : Audio Video InterleaveFile size : 191 MiBDuration : 9mn 27sOverall bit rate : 2 825 KbpsWriting application : VirtualDubModRus 1.5.10.2 (build 2542/release)
VideoID : 0Format : MPEG-4 VisualFormat profile : Advanced [email protected] settings, BVOP : 2Format settings, QPel : NoFormat settings, GMC : No warppointsFormat settings, Matrix : CustomCodec ID : XVIDCodec ID/Hint : XviDDuration : 9mn 27sBit rate : 2 198 KbpsWidth : 704 pixelsHeight : 528 pixelsDisplay aspect ratio : 5:4Original display aspect ratio : 4:3Frame rate : 25.000 fpsColor space : YUVChroma subsampling : 4:2:0Bit depth : 8 bitsScan type : ProgressiveCompression mode : LossyBits/(Pixel*Frame) : 0.237Stream size : 149 MiB (78%)Writing library : XviD 65
Audio #1ID : 1Format : MPEG AudioFormat version : Version 1Format profile : Layer 3Codec ID : 55Codec ID/Hint : MP3Duration : 9mn 24sBit rate mode : ConstantBit rate : 192 KbpsChannel(s) : 2 channelsSampling rate : 48.0 KHzCompression mode : LossyDelay relative to video : 984msStream size : 12.9 MiB (7%)Alignment : Split accross interleavesInterleave, duration : 40 ms (1.01 video frame)Interleave, preload duration : 504 msWriting library : LAME3.98rEncoding settings : -m s -V 4 -q 0 -lowpass 18.6 -b 192
Audio #2ID : 2Format : AC-3Format/Info : Audio Coding 3Mode extension : CM (complete main)Format settings, Endianness : BigCodec ID : 2000Duration : 9mn 27sBit rate mode : ConstantBit rate : 192 KbpsChannel(s) : 2 channelsChannel positions : Front: L RSampling rate : 48.0 KHzBit depth : 16 bitsCompression mode : LossyStream size : 13.0 MiB (7%)Alignment : Aligned on interleavesInterleave, duration : 40 ms (1.00 video frame)Interleave, preload duration : 512 ms
Audio #3ID : 3Format : MPEG AudioFormat version : Version 1Format profile : Layer 3Codec ID : 55Codec ID/Hint : MP3Duration : 9mn 27sBit rate mode : ConstantBit rate : 224 KbpsChannel(s) : 2 channelsSampling rate : 48.0 KHzCompression mode : LossyStream size : 15.2 MiB (8%)Alignment : Aligned on interleavesInterleave, duration : 40 ms (1.00 video frame)Interleave, preload duration : 504 msWriting library : LAME3.98rEncoding settings : -m s -V 4 -q 0 -lowpass 19.4 -b 224

Скриншоты

Other forum [Profile] [PM]
Display posts from previous:    
Reply to topic

The time now is: Today 18:46

All times are GMT + 3 Hours



You cannot post new topics in this forum
You cannot reply to topics in this forum
You cannot edit your posts in this forum
You cannot delete your posts in this forum
You cannot vote in polls in this forum
You cannot attach files in this forum
You cannot download files in this forum