Today is a free download without charge Download

Романтичная англичанка / The Romantic Englishwoman [Джозеф Лоузи (1975) драма, комедия, BDRip 720p ]

Reply to topic
 
Author
Message

Delia ®

Gender:

Longevity: 11 years

Posts: 1821

Торрент-статистика

Post 31-Mar-2012 00:15

[Quote]

Романтичная англичанка / The Romantic Englishwoman--
Год выпуска: 1975
Страна: Франция , Великобритания
Жанр: драма, комедия, ...
Продолжительность: 01:56:36
Перевод: Профессиональный (многоголосый закадровый)
Режиссер: Джозеф Лоузи
Сценарий: Том Стоппард, Томас Вайсман
Продюсер: Дэниэл М. Энджел, Ричард Ф. Далтон
Оператор: Джерри Фишер
Композитор: Ричард Хартли
Художник: Ричард МакДональд, Рут Майерс
Монтаж: Реджинальд Бек- В ролях: Гленда Джексон (Glenda Jackson), Майкл Кейн (Michael Caine), Хельмут Бергер (Helmut Berger), Микаэль Лонсдаль (Michael Lonsdale), Беатрис Роман (Beatrice Romand), Кейт Неллиган (Kate Nelligan), Натали Делон (Nathalie Delon), Райнхард Колльдехофф (Reinhard Kolldehoff), Анна Стил (Anna Steele), Маркус Ричардсон (Marcus Richardson), Julie Peasgood, Фрэнки Джордан (Frankie Jordan), Том Чатто (Tom Chatto), Фрэнсис Томелти (Frances Tomelty), Лилиас Уолкер (Lillias Walker), Дорис Нолан (Doris Nolan), Фил Браун (Phil Brown), Марселла Маркам (Marcella Markham), Norman Scace, Билл Уоллис (Bill Wallis)
Описание: Жена преуспевающего английского писателя Элизабет — очень романтичная особа. Заскучав в обществе своего мужа, она уезжает развеяться в Баден-Баден. В лифте она случайно знакомится с немецким поэтом и жиголо Томасом, который изредка подрабатывает наркокурьером.-Бюджет: $1 200 000
Премьера (мир): 11 июня 1975, ...
Релиз на DVD: 25 июня 2009, «Настроение Video», ...
Рейтинг MPAA: -- --Качество: BDRip720p
Формат: MKV
Видео кодек: H.264 (AVC)
Аудио кодеk: AC3
Видео: 1180x720 (1.639:1), 23.976 fps, AVC, 4 791 Kbps
Аудио: AC3, 192 Kbps, 48.0 KHz, 2 ch RUS MVO
Аудио : AC3, 384 Kbps, 48.0 KHz, 2 ch ENG

МедиаИнфо

Код:
General
Complete name                    : Romantic Englishwoman(1975)BDRip-F.HD.mkv
Format                           : Matroska
File size                        : 4.37 GiB
Duration                         : 1h 56mn
Overall bit rate                 : 5 369 Kbps
Encoded date                     : UTC 2012-03-30 19:57:05
Writing application              : mkvmerge v5.4.0 ('Piper') built on Mar 10 2012 13:34:39
Writing library                  : libebml v1.2.3 + libmatroska v1.3.0
Video
ID                               : 1
Format                           : AVC
Format/Info                      : Advanced Video Codec
Format profile                   : [email protected]
Format settings, CABAC           : Yes
Format settings, ReFrames        : 9 frames
Muxing mode                      : Container [email protected]
Codec ID                         : V_MPEG4/ISO/AVC
Duration                         : 1h 56mn
Bit rate                         : 4 791 Kbps
Width                            : 1 180 pixels
Height                           : 720 pixels
Display aspect ratio             : 1.639
Frame rate                       : 23.976 fps
Color space                      : YUV
Chroma subsampling               : 4:2:0
Bit depth                        : 8 bits
Scan type                        : Progressive
Bits/(Pixel*Frame)               : 0.235
Stream size                      : 3.82 GiB (87%)
Title                            : FREEISLAND
Writing library                  : x264 core 122 r2184 5c85e0a
Encoding settings                : cabac=1 / ref=9 / deblock=1:-3:-3 / analyse=0x3:0x113 / me=umh / subme=10 / psy=1 / psy_rd=1.10:0.10 / mixed_ref=1 / me_range=32 / chroma_me=1 / trellis=2 / 8x8dct=1 / cqm=0 / deadzone=21,11 / fast_pskip=0 / chroma_qp_offset=-3 / threads=6 / sliced_threads=0 / nr=0 / decimate=1 / interlaced=0 / bluray_compat=0 / constrained_intra=0 / bframes=7 / b_pyramid=2 / b_adapt=2 / b_bias=0 / direct=3 / weightb=1 / open_gop=0 / weightp=2 / keyint=230 / keyint_min=22 / scenecut=40 / intra_refresh=0 / rc=2pass / mbtree=0 / bitrate=4791 / ratetol=1.0 / qcomp=0.70 / qpmin=0 / qpmax=69 / qpstep=4 / cplxblur=20.0 / qblur=0.5 / ip_ratio=1.40 / pb_ratio=1.30 / aq=2:1.00
Color primaries                  : BT.709-5, BT.1361, IEC 61966-2-4, SMPTE RP177
Transfer characteristics         : BT.709-5, BT.1361
Matrix coefficients              : BT.709-5, BT.1361, IEC 61966-2-4 709, SMPTE RP177
Audio #1
ID                               : 2
Format                           : AC-3
Format/Info                      : Audio Coding 3
Mode extension                   : CM (complete main)
Codec ID                         : A_AC3
Duration                         : 1h 56mn
Bit rate mode                    : Constant
Bit rate                         : 192 Kbps
Channel(s)                       : 2 channels
Channel positions                : Front: L R
Sampling rate                    : 48.0 KHz
Bit depth                        : 16 bits
Stream size                      : 160 MiB (4%)
Title                            : 5 канал
Language                         : Russian
Audio #2
ID                               : 3
Format                           : AC-3
Format/Info                      : Audio Coding 3
Mode extension                   : CM (complete main)
Codec ID                         : A_AC3
Duration                         : 1h 56mn
Bit rate mode                    : Constant
Bit rate                         : 384 Kbps
Channel(s)                       : 2 channels
Channel positions                : Front: L R
Sampling rate                    : 48.0 KHz
Bit depth                        : 16 bits
Stream size                      : 320 MiB (7%)


Скриншоты

     
     

_________________
Человек – это канат, натянутый между животным и сверхчеловеком, – канат над пропастью.
В человеке ценно то, что он мост, а не цель. Фридрих Ницше
Other forum [Profile] [PM]
Similar theme
Forum Topic Author Torrent Replies Last Post
./templates/default/images/folder_dl.gif Лицензии Alien Shooter TD (2017) [Ru/En] (1.0.5) SteamRip R.G. Игроманы }{@R0N
1 | 0

0 | 2814

4

2017-01-23 22:27
}{@R0N Latest
Display posts from previous:    
Reply to topic

The time now is: Today 10:44

All times are GMT + 3 Hours



You cannot post new topics in this forum
You cannot reply to topics in this forum
You cannot edit your posts in this forum
You cannot delete your posts in this forum
You cannot vote in polls in this forum
You cannot attach files in this forum
You cannot download files in this forum