Today is a free download without charge Download

Ожерелье (Александр Хван) [2013, Россия, мелодрама, HDTV 1080i]

Reply to topic
 
Author
Message

Omen ®

Longevity: 8 years 10 months

Posts: 181086

Торрент-статистика

Post 19-Mar-2015 00:13

[Quote]

Ожерелье
Год выпуска: 2013
Производство: Россия, кинокомпания "Русское"
Жанр: Мелодрама
Продолжительность: 01:33:26
Субтитры: нет
Режиссёр:Александр Хван
В ролях: Мария Куликова, Екатерина Андреева, Мария Болонкина, Ольга Филиппова, Кирилл Гребенщиков, Андрей Биланов, Сергей Мухин, Юлия Васильева, Григорий Рыжиков, Галина Шмакова, Владимир Павленко
Описание: Марина, красивая и талантливая профессорская дочь, влачит жалкое существование. После смерти отца она все силы кинула на то, чтобы помочь своему женатому возлюбленному Юрию продвинуться по службе. А став деканом, Юрий, во избежание сплетен, оставил Марину на должности лаборантки...

Качество: HDTV 1080i
Контейнер: TS
Видео: MPEG4 Video (H264) 1920x1080, ~ 5623 Кбит/сек, 25.00fps 0.108 bit/pixel
Аудио: MP2, 2 канала, 48,0 КГц, ~256 kbps
Сторонней рекламы нет!

MI

ОбщееИдентификатор : 1 (0x1)Полное имя : F:\Фильмы торренты\Ozherele.2013.HDTV.(1080i).MediaClub.tsФормат : MPEG-TSРазмер файла : 4,04 ГбайтПродолжительность : 1 ч. 33 м.Режим общего битрейта : ПеременныйОбщий поток : 6187 Кбит/сек
ВидеоИдентификатор : 67 (0x43)Идентификатор меню : 1 (0x1)Формат : AVCФормат/Информация : Advanced Video CodecПрофиль формата : [email protected]Параметр CABAC формата : ДаПараметр ReFrames формата : 4 кадраИдентификатор кодека : 27Продолжительность : 1 ч. 33 м.Битрейт : 5623 Кбит/секШирина : 1920 пикселейВысота : 1080 пикселейСоотношение сторон : 16:9Частота кадров : 25,000 кадров/секСтандарт вещания : ComponentЦветовое пространство : YUVСубдискретизация насыщенности : 4:2:0Битовая глубина : 8 битТип развёртки : ЧересстрочнаяПорядок развёртки : Верхнее поле первоеБит/(Пиксели*Кадры) : 0.108Размер потока : 3,67 Гбайт (91%)Основные цвета : BT.709Характеристики трансфера : BT.709Коэффициенты матрицы : BT.709
АудиоИдентификатор : 68 (0x44)Идентификатор меню : 1 (0x1)Формат : MPEG AudioВерсия формата : Version 1Профиль формата : Layer 2Идентификатор кодека : 3Продолжительность : 1 ч. 33 м.Вид битрейта : ПостоянныйБитрейт : 256 Кбит/секКаналы : 2 каналаЧастота : 48,0 КГцМетод сжатия : С потерямиЗадержка видео : -80 мс.Размер потока : 171 Мбайт (4%)Язык : English

Скриншоты

Скриншот с названием фильма

Other forum [Profile] [PM]
Display posts from previous:    
Reply to topic

The time now is: Today 19:03

All times are GMT + 3 Hours



You cannot post new topics in this forum
You cannot reply to topics in this forum
You cannot edit your posts in this forum
You cannot delete your posts in this forum
You cannot vote in polls in this forum
You cannot attach files in this forum
You cannot download files in this forum