Today is a free download without charge Download

Идеальный убийца / Swamp Shark (Грифф Ферст / Griff Furst) [2011, США, фантастика, DVD5] R5 «Новый Диск»

Reply to topic
 
Author
Message

Koralina ®

Longevity: 9 years 7 months

Posts: 994

Location: Lithuania

Торрент-статистика

Post 30-Mar-2012 18:21

[Quote]

Идеальный убийца / Swamp Shark
Русское название: Идеальный убийца
Оригинальное название: Swamp Shark
Год выхода: 2011
Режиссер: Грифф Ферст / Griff Furst
В ролях: Кристи Суонсон, Д.Б. Суини, Роберт Дави, Джефф Чейз, Джейсон Рогель, Ричард Танн, Софи Синиз, Вэйд Боггс, Наташа Итзель, Дилан Рэмс
Страна производства: США
Продолжительность: 85 мин. / 01:25
Продюсер: Кеннет М. Бэдиш, Дэниэл Льюис, Ryan Noto
Сценарий: Charles Bolon, Jennifer Iwen, Эрик Миллер
Премьера в мире: 25 июня 2011
Жанр: фантастика
Перевод: Профессиональный (многоголосый закадровый) [Лицензия]
Cубтитры: нет
Описание: Открыт купальный сезон на великолепных озерах Атчафалайя. Перед фестивалем здесь собирается много молодых людей и семей с детьми. И в ночь перед праздником чудовища вышли из болотистой части озер. Ничего не подозревающих людей ждет настоящий ужас, ведь им предстоит встреча с существом, подобного которому никто никогда не видел!
Рейтинг MPAA: R - Лицам до 17 лет обязательно присутствие взрослого
Рейтинг IMDB:
Рейтинг Kinopoisk:
Качество: DVD5 R5
Формат: DVD-Video
Видео кодек: MPEG2
Аудио кодек: AC3
Видео: PAL 16:9 (720x576(0.571)) MPEG Video, 25,000 кадр/сек, 5918 Кбит/сек
Аудио: Russian (Dolby AC3, 6 ch) 448 Кбит/сек, 48,0 КГц

DVDInfo

Код:
Title:
Size: 3.96 Gb ( 4 154 092 KBytes ) - DVD-5
Enabled regions: 1, 2, 3, 4, 5, 6, 7, 8
VTS_01 :
Play Length: 00:00:10
Video: PAL 4:3 (720x576) VBR
Audio:
Russian (Dolby AC3, 2 ch)
VTS_02 :
Play Length: 01:25:15
Video: PAL 16:9 (720x576) VBR, Auto Letterboxed
Audio:
Russian (Dolby AC3, 6 ch)
Menu Video:
PAL 4:3 (720x576) VBR
Menu Subtitles:
Not specified
Menu English Language Unit :
Root Menu

MediaInfo

Код:
Общее
Полное имя : G:\Новинки 2012\Idealnyj.ubijca.2011.DVD5\VIDEO_TS\VTS_02_1.VOB
Формат : MPEG-PS
Размер файла : 1024 Мбайт
Продолжительность : 22 м.
Режим общего битрейта : Переменный
Общий поток : 6495 Кбит/сек
Видео
Идентификатор : 224 (0xE0)
Формат : MPEG Video
Версия формата : Version 2
Профиль формата : [email protected]
Параметр BVOP формата : Да
Параметр матрицы формата : Выборочная
Параметр GOP формата : M=3, N=15
Продолжительность : 22 м.
Вид битрейта : Переменный
Битрейт : 5918 Кбит/сек
Максимальный битрейт : 9000 Кбит/сек
Ширина : 720 пикселей
Высота : 576 пикселей
Соотношение сторон : 16:9
Частота кадров : 25,000 кадров/сек
Стандарт вещания : PAL
Цветовое пространство : YUV
Субдискретизация насыщенности : 4:2:0
Битовая глубина : 8 бит
Тип развёртки : Прогрессивная
Метод сжатия : С потерями
Бит/(Пиксели*Кадры) : 0.571
Размер потока : 933 Мбайт (91%)
Аудио
Идентификатор : 189 (0xBD)-128 (0x80)
Формат : AC-3
Формат/Информация : Audio Coding 3
Расширение режима : CM (complete main)
Режим смешивания : DVD-Video
Продолжительность : 22 м.
Вид битрейта : Постоянный
Битрейт : 448 Кбит/сек
Каналы : 6 каналов
Расположение каналов : Front: L C R, Side: L R, LFE
Частота : 48,0 КГц
Битовая глубина : 16 бит
Метод сжатия : С потерями
Размер потока : 70,6 Мбайт (7%)

Скриншоты меню

   

Скриншоты фильма

               

_________________
Other forum [Profile] [PM]
Display posts from previous:    
Reply to topic

The time now is: Today 02:21

All times are GMT + 3 Hours



You cannot post new topics in this forum
You cannot reply to topics in this forum
You cannot edit your posts in this forum
You cannot delete your posts in this forum
You cannot vote in polls in this forum
You cannot attach files in this forum
You cannot download files in this forum