Today is a free download without charge Download

Роб Рой / Rob Roy [Майкл Кейтон-Джонс (1995) боевик, драма, мелодрама, военный, биография, история , BDRip 720p ]

Reply to topic
 
Author
Message

Delia ®

Gender:

Longevity: 10 years

Posts: 1821

Торрент-статистика

Post 30-Mar-2012 11:24

[Quote]

Роб Рой / Rob Roy«Honor made him a man. Courage made him a hero. History made him a Legend»--
Год выпуска: 1995
Страна: США , Великобритания
Жанр: боевик, драма, мелодрама, военный, биография, история, ...
Продолжительность: 02:19:17
Перевод: Профессиональный (многоголосый закадровый)
Субтитры: английские (SRT)
Режиссер: Майкл Кейтон-Джонс
Сценарий: Алан Шарп, Вальтер Скотт
Продюсер: Peter Broughan, Майкл Кейтон-Джонс, Ларри ДеВээй, ...
Оператор: Карл Вальтер Линденлауб
Композитор: Картер Бёруэлл
Художник: Эсшетон Гортон, Джон Ральф, Алан Томкинс, ...
Монтаж: Питер Хонесс- В ролях: Лиам Нисон (Liam Neeson), Джессика Лэнг (Jessica Lange), Джон Хёрт (John Hurt), Тим Рот (Tim Roth), Эрик Столц (Eric Stoltz), Эндрю Кир (Andrew Keir), Брайан Кокс (Brian Cox), Брайан МакКарди (Brian McCardie), Гилберт Мартин (Gilbert Martin), Вики Массон (Vicki Masson), Джилли Гилкрист (Gilly Gilchrist), Джейсон Флеминг (Jason Flemyng), Ивэн Стюарт (Ewan Stewart), Дэвид Хеймен (David Hayman), Брайан МакАртур (Brian McArthur), Дэвид Брукс Палмер (David Brooks Palmer), Мира МакФадьен (Myra McFadyen), Карен Мэтисон (Karen Matheson), Ширли Хендерсон (Shirley Henderson), Джон Мурта (John Murtagh)
Описание: Зима на севере Шотландии очень сурова, и Роб Рой, чтобы обеспечить свой семейный клан, вынужден просить денег у не слишком благородного маркиза Монтерозского.Однако, прихвостень маркиза коварно завладевает этими деньгами, и Роб Рой оказывается втянутым в самую опасную схватку в своей жизни.-Рейтинг MPAA: -- --Качество: BDRip
Формат: MKV
Видео кодек: AVC
Аудио кодеk: AC3
Видео: 1280x544 (2.35:1), 23.976 fps, AVC, 4 300 Kbps
Аудио: : AC3, 192 Kbps, 48.0 KHz, 2 ch RUS MVO

МедиаИнфо

Код:
General
Complete name                    : Rob.Roj.1996.BDRip-F.HD.mkv
Format                           : Matroska
File size                        : 4.37 GiB
Duration                         : 2h 19mn
Overall bit rate                 : 4 493 Kbps
Encoded date                     : UTC 2012-03-30 07:16:00
Writing application              : mkvmerge v5.4.0 ('Piper') built on Mar 10 2012 13:34:39
Writing library                  : libebml v1.2.3 + libmatroska v1.3.0
Video
ID                               : 1
Format                           : AVC
Format/Info                      : Advanced Video Codec
Format profile                   : [email protected]
Format settings, CABAC           : Yes
Format settings, ReFrames        : 10 frames
Muxing mode                      : Container [email protected]
Codec ID                         : V_MPEG4/ISO/AVC
Duration                         : 2h 19mn
Bit rate                         : 4 300 Kbps
Width                            : 1 280 pixels
Height                           : 544 pixels
Display aspect ratio             : 2.35:1
Frame rate                       : 23.976 fps
Color space                      : YUV
Chroma subsampling               : 4:2:0
Bit depth                        : 8 bits
Scan type                        : Progressive
Bits/(Pixel*Frame)               : 0.258
Stream size                      : 4.10 GiB (94%)
Title                            : FREEISLAND
Writing library                  : x264 core 122 r2184 5c85e0a
Encoding settings                : cabac=1 / ref=10 / deblock=1:-3:-3 / analyse=0x3:0x113 / me=umh / subme=11 / psy=1 / psy_rd=1.10:0.20 / mixed_ref=1 / me_range=48 / chroma_me=1 / trellis=2 / 8x8dct=1 / cqm=0 / deadzone=21,11 / fast_pskip=0 / chroma_qp_offset=-3 / threads=6 / sliced_threads=0 / nr=0 / decimate=1 / interlaced=0 / bluray_compat=0 / constrained_intra=0 / bframes=8 / b_pyramid=2 / b_adapt=2 / b_bias=0 / direct=3 / weightb=1 / open_gop=0 / weightp=2 / keyint=230 / keyint_min=22 / scenecut=40 / intra_refresh=0 / rc=2pass / mbtree=0 / bitrate=4300 / ratetol=1.0 / qcomp=0.70 / qpmin=0 / qpmax=69 / qpstep=4 / cplxblur=20.0 / qblur=0.5 / ip_ratio=1.40 / pb_ratio=1.20 / aq=2:0.90
Color primaries                  : BT.709-5, BT.1361, IEC 61966-2-4, SMPTE RP177
Transfer characteristics         : BT.709-5, BT.1361
Matrix coefficients              : BT.709-5, BT.1361, IEC 61966-2-4 709, SMPTE RP177
Audio
ID                               : 2
Format                           : AC-3
Format/Info                      : Audio Coding 3
Mode extension                   : CM (complete main)
Codec ID                         : A_AC3
Duration                         : 2h 19mn
Bit rate mode                    : Constant
Bit rate                         : 192 Kbps
Channel(s)                       : 2 channels
Channel positions                : Front: L R
Sampling rate                    : 48.0 KHz
Bit depth                        : 16 bits
Stream size                      : 191 MiB (4%)
Title                            : MVO: 1 канал
Language                         : Russian
Text
ID                               : 3
Format                           : UTF-8
Codec ID                         : S_TEXT/UTF8
Codec ID/Info                    : UTF-8 Plain Text
Menu
00:00:00.000                     : en:Chapter 01
00:02:18.096                     : en:Chapter 02
00:02:45.789                     : en:Chapter 03
00:07:25.569                     : en:Chapter 04
00:10:24.080                     : en:Chapter 05
00:18:40.869                     : en:Chapter 06
00:24:14.077                     : en:Chapter 07
00:31:48.864                     : en:Chapter 08
00:37:45.930                     : en:Chapter 09
00:45:07.788                     : en:Chapter 10
00:50:27.858                     : en:Chapter 11
00:56:03.401                     : en:Chapter 12
01:02:06.472                     : en:Chapter 13
01:04:22.859                     : en:Chapter 14
01:06:06.837                     : en:Chapter 15
01:12:38.687                     : en:Chapter 16
01:15:37.073                     : en:Chapter 17
01:18:13.814                     : en:Chapter 18
01:22:12.928                     : en:Chapter 19
01:24:50.210                     : en:Chapter 20
01:28:14.455                     : en:Chapter 21
01:30:30.675                     : en:Chapter 22
01:35:40.484                     : en:Chapter 23
01:40:18.345                     : en:Chapter 24
01:43:21.737                     : en:Chapter 25
01:46:22.292                     : en:Chapter 26
01:48:46.853                     : en:Chapter 27
01:53:53.451                     : en:Chapter 28
01:59:30.746                     : en:Chapter 29
02:04:41.015                     : en:Chapter 30
02:11:38.515                     : en:Chapter 31
02:14:10.333                     : en:Chapter 32
02:19:17.349                     : en:Chapter 33

Знаете ли Вы, что...

» За свою роль второго плана в этой картине Тим Рот был отмечен номинациями на «Оскар» и «Золотой глобус», а также стал обладателем премии Британской киноакадемии BAFTA.
» Джессика Ланж заменила Миранду Ричардсон.


Скриншоты

     
     

_________________
Человек – это канат, натянутый между животным и сверхчеловеком, – канат над пропастью.
В человеке ценно то, что он мост, а не цель. Фридрих Ницше
Other forum [Profile] [PM]
Display posts from previous:    
Reply to topic

The time now is: Today 10:42

All times are GMT + 3 Hours



You cannot post new topics in this forum
You cannot reply to topics in this forum
You cannot edit your posts in this forum
You cannot delete your posts in this forum
You cannot vote in polls in this forum
You cannot attach files in this forum
You cannot download files in this forum