Today is a free download without charge Download

Фанатки на завтрак не остаются / Groupies bleiben nicht zum Fruhstuck (Марк Ротемунд / Marc Rothemund) [2010, Германия, мелодрама, комедия, DVD9] R5 MVO Sub Rus + Original Ger

Reply to topic
 
Author
Message

Koralina ®

Longevity: 9 years 7 months

Posts: 994

Location: Lithuania

Торрент-статистика

Post 29-Mar-2012 23:47

[Quote]

Фанатки на завтрак не остаются / Groupies bleiben nicht zum Fruhstuck
Страна: Германия
Студия: SamFilm GmbH
Жанр: мелодрама, комедия
Год выпуска: 2010
Мировая премьера: 13 сентября 2010
Дата выхода DVD: 28 марта 2012, «Кармен Видео»
Продолжительность: 01:39:56
Перевод: Профессиональный (многоголосый закадровый) [Лицензия]
Cубтитры: русские
Оригинальная аудиодорожка: немецкий
Режиссер: Марк Ротемунд / Marc Rothemund
В ролях: Анна Фишер, Костя Ульманн, Инка Фридрих, Эмбер Бонгард, Нина Гуммих, Роман Книжка, Бен Браун, Джозеф Маттес, Michael Keseroglu, Франциска Вульф
Описание: После года, проведенного в США в качестве студентки по обмену, 17-летняя Лила возвращается домой в Германию, где влюбляется в привлекательного молодого человека по имени Криц. То чего Лила изначально не знала: за год ее отсутствия в Германии появилась молодежная супер-популярная группа, в одночасье добившаяся огромного успеха среди подростков. Слава группы еще не дошла до США, но в Германии они стали мегазвездами, а солистом группы как раз и является Криц. Когда Лила узнает об этом, трудности неизбежны. К тому же, Криц разделяет чувства Лилы к превеликому ужасу своего менеджера: по контракту Крицу запрещено иметь подружек, так это испортит его имидж одинокого красавчика. Есть ли шанс у любви Лилы и Крица?

Релиз группы:
Качество: DVD9 R5
Формат: DVD-Video
Видео кодек: MPEG2
Аудио кодек: AC3
Видео: PAL 16:9 (720x576(0.671)) MPEG Video, 25,000 кадр/сек, 6955 Кбит/сек
Аудио #1: Russian (Dolby AC3, 6 ch) 384 Кбит/сек, 48,0 КГц
Аудио #2: Russian (Dolby AC3, 2 ch) 192 Кбит/сек, 48,0 КГц
Аудио #3: Deutsch (Dolby AC3, 6 ch) 384 Кбит/сек, 48,0 КГц

DVDInfo

Код:
Title:
Size: 5.94 Gb ( 6 232 960 KBytes ) - DVD-9
Enabled regions: 1, 2, 3, 4, 5, 6, 7, 8
VTS_01 :
Play Length: 01:39:56
Video: PAL 16:9 (720x576) VBR, Auto Letterboxed
Audio:
Russian (Dolby AC3, 6 ch)
Russian (Dolby AC3, 2 ch)
Deutsch (Dolby AC3, 6 ch)
Subtitles:
Russian
VTS_02 :
Play Length: 00:00:05+00:00:13
Video: PAL 16:9 (720x576) VBR, Auto Letterboxed
Audio:
Russian (Dolby AC3, 6 ch)
VTS_03 :
Play Length: 00:03:52
Video: PAL 16:9 (720x576) VBR, Auto Letterboxed
Audio:
Russian (Dolby AC3, 2 ch)
Menu Video:
PAL 4:3 (720x576) VBR
Auto Pan&Scan, Auto Letterboxed
Menu Russian Language Unit :
Root Menu
Angle menu

MediaInfo

Код:
Общее
Полное имя : J:\Новинки 2012\Fanatki.na.zavtrak.ne.ostajutsya.2010.DVD9\VIDEO_TS\VTS_01_2.VOB
Формат : MPEG-PS
Размер файла : 1024 Мбайт
Продолжительность : 17 м.
Режим общего битрейта : Переменный
Общий поток : 8076 Кбит/сек
Видео
Идентификатор : 224 (0xE0)
Формат : MPEG Video
Версия формата : Version 2
Профиль формата : [email protected]
Параметр BVOP формата : Да
Параметр матрицы формата : Выборочная
Продолжительность : 17 м.
Вид битрейта : Переменный
Битрейт : 6955 Кбит/сек
Максимальный битрейт : 8500 Кбит/сек
Ширина : 720 пикселей
Высота : 576 пикселей
Соотношение сторон : 16:9
Частота кадров : 25,000 кадров/сек
Стандарт вещания : PAL
Цветовое пространство : YUV
Субдискретизация насыщенности : 4:2:0
Битовая глубина : 8 бит
Тип развёртки : Чересстрочная
Порядок развёртки : Верхнее поле первое
Метод сжатия : С потерями
Бит/(Пиксели*Кадры) : 0.671
Размер потока : 882 Мбайт (86%)
Аудио #1
Идентификатор : 189 (0xBD)-128 (0x80)
Формат : AC-3
Формат/Информация : Audio Coding 3
Расширение режима : CM (complete main)
Режим смешивания : DVD-Video
Продолжительность : 17 м.
Вид битрейта : Постоянный
Битрейт : 384 Кбит/сек
Каналы : 6 каналов
Расположение каналов : Front: L C R, Side: L R, LFE
Частота : 48,0 КГц
Битовая глубина : 16 бит
Метод сжатия : С потерями
Задержка видео : -272 мс.
Размер потока : 48,7 Мбайт (5%)
Аудио #2
Идентификатор : 189 (0xBD)-129 (0x81)
Формат : AC-3
Формат/Информация : Audio Coding 3
Расширение режима : CM (complete main)
Режим смешивания : DVD-Video
Продолжительность : 17 м.
Вид битрейта : Постоянный
Битрейт : 192 Кбит/сек
Каналы : 2 канала
Расположение каналов : Front: L R
Частота : 48,0 КГц
Битовая глубина : 16 бит
Метод сжатия : С потерями
Задержка видео : -144 мс.
Размер потока : 24,3 Мбайт (2%)
Аудио #3
Идентификатор : 189 (0xBD)-130 (0x82)
Формат : AC-3
Формат/Информация : Audio Coding 3
Расширение режима : CM (complete main)
Режим смешивания : DVD-Video
Продолжительность : 17 м.
Вид битрейта : Постоянный
Битрейт : 384 Кбит/сек
Каналы : 6 каналов
Расположение каналов : Front: L C R, Side: L R, LFE
Частота : 48,0 КГц
Битовая глубина : 16 бит
Метод сжатия : С потерями
Задержка видео : -272 мс.
Размер потока : 48,7 Мбайт (5%)
Текст
Идентификатор : 189 (0xBD)-32 (0x20)
Формат : RLE
Формат/Информация : Run-length encoding
Режим смешивания : DVD-Video
Продолжительность : 17 м.
Задержка видео : 3 с. 80 мс.

Скриншоты меню

     

Скриншоты фильма

               

_________________
Other forum [Profile] [PM]
Display posts from previous:    
Reply to topic

The time now is: Today 06:50

All times are GMT + 3 Hours



You cannot post new topics in this forum
You cannot reply to topics in this forum
You cannot edit your posts in this forum
You cannot delete your posts in this forum
You cannot vote in polls in this forum
You cannot attach files in this forum
You cannot download files in this forum