Today is a free download without charge Download

Древнее пророчество / Стоунхендж Апокалипсис / Stonehenge Apocalypse (Пол Зиллер / Paul Ziller) [2010, Канада, фантастика, DVD5] R5 «Новый Диск»

Reply to topic
 
Author
Message

Koralina ®

Longevity: 9 years 7 months

Posts: 994

Location: Lithuania

Торрент-статистика

Post 29-Mar-2012 19:47

[Quote]

Древнее пророчество / Стоунхендж Апокалипсис / Stonehenge Apocalypse
Страна: Канада
Студия: Cinetel Films, Movie Central Network, National Bank of Canada TV and Motion Picture Group, Reel One Pictures, Super Écran (Premier Choix: TVEC Inc.), Syfy, The Movie Network (TMN)
Жанр: фантастика
Мировая премьера: 12 июня 2010
Дата выхода DVD: 29 марта 2012, «Новый Диск»
Год выпуска: 2010
Продолжительность: 01:27:04
Перевод: Профессиональный (многоголосый закадровый) [Лицензия]
Cубтитры: украинские
Режиссер: Пол Зиллер / Paul Ziller
В ролях: Лауро Чартрэнд, Миша Коллинз, Долорес Дрэйк, Хилл Харпер, Торри Хиггинсон, Адриан Холмс, Нимет Каньджи, Майкл Копса, Колин Лоуренс
Описание: Когда гигантские камни Стоунхенджа начинают двигаться, и катаклизмы происходят на всей Земле, лишь ведущий ток-шоу на радио, который является экспертом в уфологии, выясняет, что древний памятник — на самом деле внеземная технология.
, ,
Качество: DVD5 R5
Формат: DVD-Video
Видео кодек: MPEG2
Аудио кодек: AC3
Видео: PAL 16:9 (720x576(0.572)) MPEG Video, 25,000 кадр/сек, 5933 Кбит/сек
Аудио: Russian (Dolby AC3, 6 ch) 448 Кбит/сек, 48,0 КГц

DVDInfo

Код:
Title:
Size: 3.92 Gb ( 4 105 428 KBytes ) - DVD-5
Enabled regions: 1, 2, 3, 4, 5, 6, 7, 8
VTS_01 :
Play Length: 00:00:10
Video: PAL 4:3 (720x576) VBR
Audio:
Russian (Dolby AC3, 2 ch)
VTS_02 :
Play Length: 01:27:04
Video: PAL 16:9 (720x576) VBR, Auto Letterboxed
Audio:
Russian (Dolby AC3, 6 ch)
Menu Video:
PAL 4:3 (720x576) VBR
Menu Subtitles:
Not specified
Menu English Language Unit :
Root Menu

MediaInfo

Код:
Общее
Полное имя : J:\Новинки 2012\Drevnee.prorochestvo.2010.DVD5\VIDEO_TS\VTS_02_2.VOB
Формат : MPEG-PS
Размер файла : 1024 Мбайт
Продолжительность : 21 м.
Режим общего битрейта : Переменный
Общий поток : 6510 Кбит/сек
Видео
Идентификатор : 224 (0xE0)
Формат : MPEG Video
Версия формата : Version 2
Профиль формата : [email protected]
Параметр BVOP формата : Да
Параметр матрицы формата : Выборочная
Параметр GOP формата : M=3, N=15
Продолжительность : 21 м.
Вид битрейта : Переменный
Битрейт : 5933 Кбит/сек
Максимальный битрейт : 8000 Кбит/сек
Ширина : 720 пикселей
Высота : 576 пикселей
Соотношение сторон : 16:9
Частота кадров : 25,000 кадров/сек
Стандарт вещания : PAL
Цветовое пространство : YUV
Субдискретизация насыщенности : 4:2:0
Битовая глубина : 8 бит
Тип развёртки : Чересстрочная
Порядок развёртки : Верхнее поле первое
Метод сжатия : С потерями
Бит/(Пиксели*Кадры) : 0.572
Размер потока : 933 Мбайт (91%)
Аудио
Идентификатор : 189 (0xBD)-128 (0x80)
Формат : AC-3
Формат/Информация : Audio Coding 3
Расширение режима : CM (complete main)
Режим смешивания : DVD-Video
Продолжительность : 21 м.
Вид битрейта : Постоянный
Битрейт : 448 Кбит/сек
Каналы : 6 каналов
Расположение каналов : Front: L C R, Side: L R, LFE
Частота : 48,0 КГц
Битовая глубина : 16 бит
Метод сжатия : С потерями
Задержка видео : -216 мс.
Размер потока : 70,5 Мбайт (7%)

Скриншоты меню

   

Скриншоты фильма

               

_________________
Other forum [Profile] [PM]

Haron

Gender:

Longevity: 9 years 5 months

Posts: 85

Нарушений: 1

Location: Москвэ

Торрент-статистика

Post 16-Apr-2012 23:09 (after 18 days)

[Quote]

Задумка хороша а реализация говно. Муть, детский сад

_________________
Other forum [Profile] [PM]

Haron

Gender:

Longevity: 9 years 5 months

Posts: 85

Нарушений: 1

Location: Москвэ

Торрент-статистика

Post 16-Apr-2012 23:11 (after 1 minute)

[Quote]

Все понятно чем кончится. Заснуть можно

_________________
Other forum [Profile] [PM]
Similar theme
Forum Topic Author Torrent Replies Last Post
./templates/default/images/folder_dl.gif Техническая и научно-популярная литература Вадим Долгов | Потаенная жизнь Древней Руси. Быт, нравы, любовь [2009] [FB2] Omen
0 | 1

0 | 572

1

2013-04-30 18:33
Omen Latest
Display posts from previous:    
Reply to topic

The time now is: Today 11:32

All times are GMT + 3 Hours



You cannot post new topics in this forum
You cannot reply to topics in this forum
You cannot edit your posts in this forum
You cannot delete your posts in this forum
You cannot vote in polls in this forum
You cannot attach files in this forum
You cannot download files in this forum