Today is a free download without charge Download

Элитный отряд: Враг внутри / Tropa de Elite 2 - O Inimigo Agora É Outro [ Жозе Падилья (2010) триллер, драма, криминал , BDRip 720p ]

Reply to topic
 
Author
Message

Delia ®

Gender:

Longevity: 10 years

Posts: 1821

Торрент-статистика

Post 29-Mar-2012 19:12

[Quote]

Элитный отряд: Враг внутри / Tropa de Elite 2 - O Inimigo Agora E Outro--
Год выпуска: 2010
Страна: Бразилия
Жанр: триллер, драма, криминал, ...
Продолжительность: 01:54:48
Перевод: Авторский (одноголосый закадровый)[Ю.Сербин]
Субтитры: Russian (UTF-8)
Режиссер: Жозе Падилья
Сценарий: Браулио Мантовани, Жозе Падилья, Родриго Пиментел
Продюсер: Жозе Падилья, Маркос Прадо, Джеймс Д’Арси, ...
Оператор: Лула Карвальо
Композитор: Педро Бромфман
Художник: Тьяго Маркус Тейшейра, Клаудия Копке, Одаир Зани
Монтаж: Дэниэл Резенде- В ролях: Вагнер Мора (Wagner Moura), Ирандир (Irandhir Santos), Андре Рамиро (Andre Ramiro), Мильем Кортас (Milhem Cortaz), Мария Рибейро (Maria Ribeiro), Сеу Жоржи (Seu Jorge), Сандро Роча (Sandro Rocha), Таина Мюллер (Taina Muller), Андре Маттос (Andre Mattos), Pedro Van-Held, Adriano Garib, Julio Adriao, Эмилио Орсиолло Нето (Emilio Orciollo Neto), Rodrigo Candelot, Charles Fricks, Fabricio Boliveira, Марселло Гонсалез (Marcello Gonçalves), Пьер Сантос (Pierre Santos), Уильям Вита (William Vita), Andre Santinho
Описание: Элитный отряд показал себя весьма эффективным средством борьбы с наркокартелями, перекрыв кислород организованной преступности и разгромив несколько банд. Но тут совершенно неожиданно силы правопорядка начинают терпеть одно поражение за другим.-Сборы в США: $100 119
Сборы в мире: + $62 927 562 = $63 027 681
Зрители: 11.5 млн 362.7 тыс. 42.4 тыс
Премьера (мир): 8 октября 2010, ...-- --Качество: BDRip 720p
Формат: MKV
Видео кодек: AVC
Аудио кодеk: AC3
Видео: 1280x720 (16:9), 23.976 fps, AVC, 5 067 Kbps
Аудио: AC3, 384 Kbps, 48.0 KHz, 6 ch RUS AVO

МедиаИнфо

Код:
General
Complete name                    : Tropa de Elite 2(2010)BDRip 720p-F.HD.mkv
Format                           : Matroska
File size                        : 4.37 GiB
Duration                         : 1h 54mn
Overall bit rate                 : 5 449 Kbps
Encoded date                     : UTC 2012-03-29 15:07:40
Writing application              : mkvmerge v5.4.0 ('Piper') built on Mar 10 2012 13:34:39
Writing library                  : libebml v1.2.3 + libmatroska v1.3.0
Video
ID                               : 1
Format                           : AVC
Format/Info                      : Advanced Video Codec
Format profile                   : [email protected]
Format settings, CABAC           : Yes
Format settings, ReFrames        : 8 frames
Muxing mode                      : Container [email protected]
Codec ID                         : V_MPEG4/ISO/AVC
Duration                         : 1h 54mn
Bit rate                         : 5 067 Kbps
Width                            : 1 280 pixels
Height                           : 720 pixels
Display aspect ratio             : 16:9
Frame rate                       : 23.976 fps
Color space                      : YUV
Chroma subsampling               : 4:2:0
Bit depth                        : 8 bits
Scan type                        : Progressive
Bits/(Pixel*Frame)               : 0.229
Stream size                      : 3.97 GiB (91%)
Title                            : FREEISLAND
Writing library                  : x264 core 122 r2184 5c85e0a
Encoding settings                : cabac=1 / ref=8 / deblock=1:-3:-3 / analyse=0x3:0x113 / me=umh / subme=10 / psy=1 / psy_rd=1.10:0.20 / mixed_ref=1 / me_range=32 / chroma_me=1 / trellis=2 / 8x8dct=1 / cqm=0 / deadzone=21,11 / fast_pskip=0 / chroma_qp_offset=-3 / threads=6 / sliced_threads=0 / nr=0 / decimate=1 / interlaced=0 / bluray_compat=0 / constrained_intra=0 / bframes=7 / b_pyramid=2 / b_adapt=2 / b_bias=0 / direct=3 / weightb=1 / open_gop=0 / weightp=2 / keyint=230 / keyint_min=22 / scenecut=40 / intra_refresh=0 / rc=2pass / mbtree=0 / bitrate=5067 / ratetol=1.0 / qcomp=0.70 / qpmin=0 / qpmax=69 / qpstep=4 / cplxblur=20.0 / qblur=0.5 / ip_ratio=1.40 / pb_ratio=1.20 / aq=2:0.90
Color primaries                  : BT.709-5, BT.1361, IEC 61966-2-4, SMPTE RP177
Transfer characteristics         : BT.709-5, BT.1361
Matrix coefficients              : BT.709-5, BT.1361, IEC 61966-2-4 709, SMPTE RP177
Audio
ID                               : 2
Format                           : AC-3
Format/Info                      : Audio Coding 3
Mode extension                   : CM (complete main)
Codec ID                         : A_AC3
Duration                         : 1h 54mn
Bit rate mode                    : Constant
Bit rate                         : 384 Kbps
Channel(s)                       : 6 channels
Channel positions                : Front: L C R, Side: L R, LFE
Sampling rate                    : 48.0 KHz
Bit depth                        : 16 bits
Stream size                      : 315 MiB (7%)
Language                         : Russian
Text
ID                               : 3
Format                           : UTF-8
Codec ID                         : S_TEXT/UTF8
Codec ID/Info                    : UTF-8 Plain Text
Language                         : Russian
Menu
00:00:00.000                     : en:Chapter 01
00:06:17.251                     : en:Chapter 02
00:12:29.123                     : en:Chapter 03
00:19:05.936                     : en:Chapter 04
00:27:16.217                     : en:Chapter 05
00:33:55.783                     : en:Chapter 06
00:39:46.300                     : en:Chapter 07
00:45:59.465                     : en:Chapter 08
01:00:21.909                     : en:Chapter 09
01:07:36.844                     : en:Chapter 10
01:14:38.974                     : en:Chapter 11
01:17:15.213                     : en:Chapter 12
01:23:57.615                     : en:Chapter 13
01:30:47.066                     : en:Chapter 14
01:34:54.355                     : en:Chapter 15
01:41:01.513                     : en:Chapter 16
01:42:06.161                     : en:Chapter 17
01:49:34.568                     : en:Chapter 18
01:54:48.172                     : en:Chapter 19


Скриншоты

     
     

_________________
Человек – это канат, натянутый между животным и сверхчеловеком, – канат над пропастью.
В человеке ценно то, что он мост, а не цель. Фридрих Ницше
Other forum [Profile] [PM]
Display posts from previous:    
Reply to topic

The time now is: Today 11:13

All times are GMT + 3 Hours



You cannot post new topics in this forum
You cannot reply to topics in this forum
You cannot edit your posts in this forum
You cannot delete your posts in this forum
You cannot vote in polls in this forum
You cannot attach files in this forum
You cannot download files in this forum