Today is a free download without charge Download

Кавказская пленница! (Максим Воронков) [2014, Россия, Комедия, WEB-DL 1080p] + Original Rus

Reply to topic
 
Author
Message

Omen ®

Longevity: 8 years 10 months

Posts: 181086

Торрент-статистика

Post 16-Mar-2015 18:00

[Quote]

Кавказская пленница!
Страна: Россия
Жанр: Комедия
Год выпуска: 2014
Продолжительность: 01:35:35
Перевод: Не требуется
Cубтитры: нет
Оригинальная аудиодорожка: русский
Режиссер: Максим Воронков
В ролях: Дмитрий Шаракоис, Анастасия Задорожная, Геннадий Хазанов, Арарат Кещян, Семён Стругачев, Сергей Степанченко, Николай Добрынин, Михаил Ефремов, Юлий Гусман, Лариса Удовиченко
Описание: Журналист Шурик приезжает на Кавказ, чтобы снять репортаж о местных красотах и традициях, и попадает в Горск, вотчину местного мэра города Георгия Гаджиевича Саахова. Тот, поддерживая моду, заданную губернатором, задумал жениться на молоденькой красавице, спортсменке и даже экстремалке Нине, которая так понравилась Шурику. Используя незадачливого журналиста, Саахов и его подручные похищают Нину. Но, поняв, что его разыграли, Шурик бросается спасать любимую девушку...
Сэмпл: http://multi-up.com/1038416
Тип релиза: WEB-DL 1080p
Контейнер: MKV
Видео: MPEG4 Video (H264) 1920 x 800p, ~ 4483 kbps, 24 fps, 0.122 bit/pixel
Аудио: AC-3, 6 канала, 48,0 КГц, ~384 kbps
Релиз от:

M.I.

Общее
Уникальный идентификатор : 205363706291879754954992278265266820452 (0x9A7F9C73EB5528C9B275F244B479D564)
Полное имя : D:\Кавказская пленница\KAVKAZSKAYA_PLENNICA_WEB_DL_1080p-BLUEBIRD.mkv
Формат : Matroska
Версия формата : Version 4 / Version 2
Размер файла : 3,32 Гбайт
Продолжительность : 1 ч. 35 м.
Общий поток : 4966 Кбит/сек
Название фильма : KAVKAZSKAYA_PLENNICA_WEB_DL_1080p-BLUEBIRD
Дата кодирования : UTC 2015-03-14 23:04:36
Программа кодирования : mkvmerge v7.1.0 ('Good Love') 64bit built on Jul 27 2014 13:06:55
Библиотека кодирования : libebml v1.3.0 + libmatroska v1.4.1
DURATION : 01:35:34.880000000
NUMBER_OF_FRAMES : 179215
NUMBER_OF_BYTES : 275274240
_STATISTICS_WRITING_APP : mkvmerge v7.1.0 ('Good Love') 64bit built on Jul 27 2014 13:06:55
_STATISTICS_WRITING_DATE_UTC : 2015-03-14 23:04:36
_STATISTICS_TAGS : BPS DURATION NUMBER_OF_FRAMES NUMBER_OF_BYTES
Видео
Идентификатор : 1
Формат : AVC
Формат/Информация : Advanced Video Codec
Профиль формата : [email protected]
Параметр CABAC формата : Да
Параметр ReFrames формата : 5 кадров
Идентификатор кодека : V_MPEG4/ISO/AVC
Продолжительность : 1 ч. 35 м.
Битрейт : 4483 Кбит/сек
Ширина : 1920 пикселей
Высота : 800 пикселей
Соотношение сторон : 2,40:1
Режим частоты кадров : Постоянный
Частота кадров : 24,000 кадра/сек
Цветовое пространство : YUV
Субдискретизация насыщенности : 4:2:0
Битовая глубина : 8 бит
Тип развёртки : Прогрессивная
Бит/(Пиксели*Кадры) : 0.122
Размер потока : 2,99 Гбайт (90%)
Заголовок : KAVKAZSKAYA_PLENNICA_WEB_DL_1080p-BLUEBIRD
Язык : Russian
Default : Да
Forced : Нет
Основные цвета : BT.709
Характеристики трансфера : BT.709
Коэффициенты матрицы : BT.709
colour_range : Limited
Аудио
Идентификатор : 2
Формат : AC-3
Формат/Информация : Audio Coding 3
Расширение режима : CM (complete main)
Параметр Endianness формата : Big
Идентификатор кодека : A_AC3
Продолжительность : 1 ч. 35 м.
Вид битрейта : Постоянный
Битрейт : 384 Кбит/сек
Каналы : 6 каналов
Расположение каналов : Front: L C R, Side: L R, LFE
Частота : 48,0 КГц
Битовая глубина : 16 бит
Метод сжатия : С потерями
Размер потока : 263 Мбайт (8%)
Заголовок : [ORIGINAL] 5.1 @ 384 kbps
Язык : Russian
Default : Да
Forced : Нет
Меню
00:00:00.000 : en:1
00:05:37.000 : en:2
00:11:13.000 : en:3
00:16:19.000 : en:4
00:21:46.000 : en:5
00:26:34.000 : en:6
00:31:19.000 : en:7
00:36:55.000 : en:8
00:43:19.000 : en:9
00:49:24.000 : en:10
00:54:54.000 : en:11
01:00:02.000 : en:12
01:04:54.000 : en:13
01:10:08.000 : en:14
01:15:44.000 : en:15
01:21:26.000 : en:16
01:26:45.000 : en:17
01:31:04.000 : en:18

Скриншоты

Other forum [Profile] [PM]
Display posts from previous:    
Reply to topic

The time now is: Today 13:27

All times are GMT + 3 Hours



You cannot post new topics in this forum
You cannot reply to topics in this forum
You cannot edit your posts in this forum
You cannot delete your posts in this forum
You cannot vote in polls in this forum
You cannot attach files in this forum
You cannot download files in this forum