Today is a free download without charge Download

Три плюс два (Генрих Оганисян) [1963, СССР, комедия, HDTVRip 720p]

Reply to topic
 
Author
Message

Omen ®

Longevity: 8 years 10 months

Posts: 181086

Торрент-статистика

Post 16-Mar-2015 15:00

[Quote]

Три плюс два (широкоэкранная версия)- Страна: СССР
Студия: Киностудия им. М. Горького, Рижская киностудия
Жанр: комедия
Год выпуска: 1963
Продолжительность: 01:35:05
Cубтитры: нет-Режиссер: Генрих Оганисян-В ролях:
Андрей Миронов, Евгений Жариков, Геннадий Нилов, Наталия Кустинская, Наталья Фатеева
Описание:
Трое друзей решили провести отпуск дикарями на берегу Черного моря. Но отдыху героев помешали две девушки, заявившие, что место по праву принадлежит им. Девушки не собираются уезжать и пытаются создать соседям невыносимые условия. Но вскоре вражда перерастает в любовь.-Сэмпл | Кинопоиск-Тип релиза: HDTVRip 720p, спасибо soulstorm, Лeoпoльд
Контейнер: MKV
Видео: x264 ([email protected]); 1280x540, Display aspect ratio 2.370:1, 25.000 fps, 5599 Kbps
Аудио: AC-3; 16 bit 48 Khz; 2.0ch 192 Kbps; CBR

Доп. инфо

Исходники:
http:///*spam*//forum/viewtopic.php?t=4957029 (предыдущая версия, 01:35:05 | 9300Kbps)
http:///*spam*//forum/viewtopic.php?t=4757932

MediaInfo

-

x264 log

avs [info]: 1280x540p 1:1 @ 25/1 fps (cfr)
x264 [info]: using SAR=1/1
x264 [info]: using cpu capabilities: MMX2 SSE2Fast SSSE3 SSE4.2 AVX
x264 [info]: profile High, level 4.1
x264 [info]: frame I:889 Avg QP:16.71 size:146183
x264 [info]: frame P:40824 Avg QP:19.65 size: 52427
x264 [info]: frame B:100924 Avg QP:22.07 size: 17072
x264 [info]: consecutive B-frames: 4.8% 5.9% 7.8% 60.4% 11.2% 6.8% 1.8% 1.2% 0.3%
x264 [info]: mb I I16..4: 3.5% 78.2% 18.3%
x264 [info]: mb P I16..4: 0.2% 14.4% 1.7% P16..4: 31.2% 33.8% 17.8% 0.0% 0.0% skip: 0.9%
x264 [info]: mb B I16..4: 0.0% 3.2% 0.3% B16..8: 30.3% 20.2% 3.8% direct: 8.5% skip:33.7% L0:32.5% L1:40.0% BI:27.5%
x264 [info]: 8x8 transform intra:88.7% inter:57.5%
x264 [info]: direct mvs spatial:99.0% temporal:1.0%
x264 [info]: coded y,uvDC,uvAC intra: 98.1% 78.1% 41.0% inter: 41.6% 29.0% 9.9%
x264 [info]: i16 v,h,dc,p: 8% 13% 9% 70%
x264 [info]: i8 v,h,dc,ddl,ddr,vr,hd,vl,hu: 8% 16% 7% 8% 11% 9% 13% 10% 16%
x264 [info]: i4 v,h,dc,ddl,ddr,vr,hd,vl,hu: 11% 16% 3% 7% 13% 11% 15% 9% 15%
x264 [info]: i8c dc,h,v,p: 30% 34% 20% 16%
x264 [info]: ref P L0: 67.7% 14.8% 5.4% 2.8% 2.3% 1.7% 1.6% 0.9% 0.9% 0.8% 1.0% 0.3%
x264 [info]: ref B L0: 85.4% 7.5% 2.5% 1.2% 0.9% 0.7% 0.6% 0.4% 0.4% 0.2% 0.1%
x264 [info]: ref B L1: 95.7% 4.3%
x264 [info]: kb/s:5599.18
x264 [total]: encoded 142637 frames, 8.12 fps, 5599.18 kb/s
-General
Unique ID : 211793790972081193524501699475588530249 (0x9F56001AA9AE063B972B6A679AC44049)
Complete name : Три плюс два.1963.HDTVRip.720p.mkv
Format : Matroska
Format version : Version 2
File size : 3.85 GiB
Duration : 1h 35mn
Overall bit rate : 5 793 Kbps
Movie name : «Три плюс два»
Encoded date : UTC 2015-03-16 08:36:25
Writing application : mkvmerge v5.8.0 ('No Sleep / Pillow') built on Sep 2 2012 15:37:04
Writing library : libebml v1.2.3 + libmatroska v1.3.0
Comment : HDTVRip 720p
Originally released : March 14th 2015
Encoded by : george$t®
Video
ID : 1
Format : AVC
Format/Info : Advanced Video Codec
Format profile : [email protected]
Format settings, CABAC : Yes
Format settings, ReFrames : 12 frames
Codec ID : V_MPEG4/ISO/AVC
Duration : 1h 35mn
Bit rate : 5 599 Kbps
Width : 1 280 pixels
Height : 540 pixels
Display aspect ratio : 2.40:1
Frame rate mode : Constant
Frame rate : 25.000 fps
Color space : YUV
Chroma subsampling : 4:2:0
Bit depth : 8 bits
Scan type : Progressive
Bits/(Pixel*Frame) : 0.324
Stream size : 3.64 GiB (95%)
Title : Три плюс два.1963
Writing library : x264 core 144 r2525 40bb568
Encoding settings : cabac=1 / ref=12 / deblock=1:-2:-2 / analyse=0x3:0x113 / me=umh / subme=11 / psy=1 / psy_rd=0.95:0.15 / mixed_ref=1 / me_range=32 / chroma_me=1 / trellis=2 / 8x8dct=1 / cqm=0 / deadzone=21,11 / fast_pskip=0 / chroma_qp_offset=-3 / threads=12 / lookahead_threads=2 / sliced_threads=0 / nr=0 / decimate=0 / interlaced=0 / bluray_compat=0 / stitchable=1 / constrained_intra=0 / bframes=8 / b_pyramid=2 / b_adapt=2 / b_bias=0 / direct=3 / weightb=1 / open_gop=0 / weightp=0 / keyint=250 / keyint_min=25 / scenecut=40 / intra_refresh=0 / rc_lookahead=60 / rc=2pass / mbtree=1 / bitrate=5599 / ratetol=1.0 / qcomp=0.72 / qpmin=0 / qpmax=32 / qpstep=4 / cplxblur=20.0 / qblur=0.5 / vbv_maxrate=50000 / vbv_bufsize=62500 / nal_hrd=none / filler=0 / ip_ratio=1.40 / aq=2:0.70
Language : Russian
Default : Yes
Forced : No
Color primaries : BT.709
Transfer characteristics : BT.709
Matrix coefficients : BT.709
Color range : Limited
Audio
ID : 2
Format : AC-3
Format/Info : Audio Coding 3
Mode extension : CM (complete main)
Format settings, Endianness : Big
Codec ID : A_AC3
Duration : 1h 35mn
Bit rate mode : Constant
Bit rate : 192 Kbps
Channel(s) : 2 channels
Channel positions : Front: L R
Sampling rate : 48.0 KHz
Bit depth : 16 bits
Compression mode : Lossy
Stream size : 131 MiB (3%)
Title : AC-3; 16 bit 48 Khz; 2.0ch 192 Kbps; CBR
Language : Russian
Default : Yes
Forced : No
Menu
00:00:00.000 : ru:Клятва "дикарей"
00:11:29.880 : ru:Неожиданное знакомство
00:31:16.720 : ru:Идея разделения места
00:43:16.440 : ru:Фальшивая болезнь
00:50:37.760 : ru:Совместный поход в город
00:54:13.200 : ru:В ресторане
01:00:37.160 : ru:Сон о цирке
01:07:43.000 : ru:Предложение о прогулке
01:23:10.440 : ru:Записка
01:32:06.760 : ru:Песня о любви

Скриншоты

vs. source
Other forum [Profile] [PM]
Display posts from previous:    
Reply to topic

The time now is: Today 17:50

All times are GMT + 3 Hours



You cannot post new topics in this forum
You cannot reply to topics in this forum
You cannot edit your posts in this forum
You cannot delete your posts in this forum
You cannot vote in polls in this forum
You cannot attach files in this forum
You cannot download files in this forum