Today is a free download without charge Download

Искатели могил / Grave Encounters [Вишес Бразерс / Vicious Brothers](Ужасы, триллер, Канада, 2011) BDRip 720p | Лицензия

Reply to topic
 
Author
Message

Koralina ®

Longevity: 9 years 7 months

Posts: 994

Location: Lithuania

Торрент-статистика

Post 29-Mar-2012 12:21

[Quote]

Искатели могил / Grave Encounters
Русское название: Искатели могил
Оригинальное название: Grave Encounters
Год выхода: 2010
Режиссер: Вишес Бразерс / Vicious Brothers
В ролях: Шон Роджерсон, Мервин Мондесер, Эшли Грызко, МакКензи Грэй, Хуан Ридингер, Артур Корбер, Мишель Камминс, Луис Хавьер, Шоун МакДональд, Боб Рэт
Страна производства: Канада
Продолжительность: 92 мин. / 01:32
Продюсер: Shawn Angelski, Майкл Карлин
Сценарий: Вишес Бразерс
Премьера в мире: 22 апреля 2011
Жанр: ужасы, триллер
Перевод: Профессиональный (многоголосный) [Лицензия]
Описание: Участники телевизионного шоу охотников за привидениями 'Искатели' во главе с Лэнсом Прэстоном соглашаются провести ночь в психиатрической лечебнице, о которой давно ходят жуткие легенды. Запертые на ночь в большом здании больницы 'искатели' быстро обнаружили, что теперь бороться с призраками придется всерьез, а не понарошку, так что дожить до утра у них нет никаких шансов
Рейтинг IMDB:
Рейтинг Kinopoisk:
Качество: BDRip 720p
Формат аудио: AC3
Формат видео: MKV
Видео: MPEG-4 AVC, 5175 Кбит/с, 1280x720
Аудио 1: Русский (AC3, 6 ch, 384 Кбит/c)
Аудио 2: Английский (DTS, 6 ch, 755 Кбит/с)

MediaInfo

Код:
General
Уникальный идентификатор         : 172733863218080658848639756914698476442 (0x81F354FB3566DB08866A8A668DB3DB9A)
Полное имя                       : D:\ВРЕМЕННАЯ\Iskateli.mogil.2011.P.BDRip720.ELEKTRI4KA.mkv
Формат                           : Matroska
Версия формата                   : Version 2
Размер файла                     : 4.14 GiB
Продолжительность                : 1h 33mn
Общий поток                      : 6 329 Kbps
Название фильма                  : Искатели могил
Дата кодирования                 : UTC 2012-03-26 20:32:55
Программа кодирования            : mkvmerge v5.3.0 ('I could have danced') built on Feb  9 2012 10:38:07
Библиотека кодирования           : libebml v1.2.3 + libmatroska v1.3.0
Video
Идентификатор                    : 1
Формат                           : AVC
Формат/Информация                : Advanced Video Codec
Профиль формата                  : [email protected]
Параметр CABAC формата           : Yes
Параметр ReFrames формата        : 9 frames
Идентификатор кодека             : V_MPEG4/ISO/AVC
Продолжительность                : 1h 33mn
Битрейт                          : 5 175 Kbps
Ширина                           : 1 280 pixels
Высота                           : 720 pixels
Соотношение сторон               : 16:9
Частота кадров                   : 24.000 fps
Цветовое пространство            : YUV
Субдискретизация насыщенности    : 4:2:0
Битовая глубина                  : 8 bits
Тип развёртки                    : Progressive
Бит/(Пиксели*Кадры)              : 0.234
Размер потока                    : 3.31 GiB (80%)
Заголовок                        : Iskateli.mogil.2011.P.BDRip720.ELEKTRI4KA.mkv
Библиотека кодирования           : x264 core 116 r2074 2641b9e
Настройки программы              : cabac=1 / ref=9 / deblock=1:-3:-3 / analyse=0x3:0x113 / me=umh / subme=9 / psy=1 / psy_rd=1.00:0.00 / mixed_ref=1 / me_range=32 / chroma_me=1 / trellis=2 / 8x8dct=1 / cqm=0 / deadzone=21,11 / fast_pskip=1 / chroma_qp_offset=-2 / threads=6 / sliced_threads=0 / nr=0 / decimate=1 / interlaced=0 / bluray_compat=0 / constrained_intra=0 / bframes=7 / b_pyramid=2 / b_adapt=2 / b_bias=0 / direct=3 / weightb=1 / open_gop=0 / weightp=2 / keyint=250 / keyint_min=24 / scenecut=40 / intra_refresh=0 / rc_lookahead=40 / rc=2pass / mbtree=1 / bitrate=5175 / ratetol=1.0 / qcomp=0.60 / qpmin=0 / qpmax=69 / qpstep=4 / cplxblur=20.0 / qblur=0.5 / vbv_maxrate=50000 / vbv_bufsize=50000 / nal_hrd=none / ip_ratio=1.40 / aq=1:1.00
Язык                             : English
Audio #1
Идентификатор                    : 2
Формат                           : AC-3
Формат/Информация                : Audio Coding 3
Расширение режима                : CM (complete main)
Идентификатор кодека             : A_AC3
Продолжительность                : 1h 33mn
Вид битрейта                     : Constant
Битрейт                          : 384 Kbps
Каналы                           : 6 channels
Расположение каналов             : Front: L C R, Side: L R, LFE
Частота                          : 48.0 KHz
Битовая глубина                  : 16 bits
Метод сжатия                     : Lossy
Задержка видео                   : 18ms
Размер потока                    : 257 MiB (6%)
Язык                             : Russian
Audio #2
Идентификатор                    : 3
Формат                           : DTS
Формат/Информация                : Digital Theater Systems
Идентификатор кодека             : A_DTS
Продолжительность                : 1h 33mn
Вид битрейта                     : Constant
Битрейт                          : 755 Kbps
Каналы                           : 6 channels
Расположение каналов             : Front: L C R, Side: L R, LFE
Частота                          : 48.0 KHz
Битовая глубина                  : 24 bits
Метод сжатия                     : Lossy
Размер потока                    : 505 MiB (12%)
Язык                             : English

Скриншоты

     

_________________
Other forum [Profile] [PM]
Display posts from previous:    
Reply to topic

The time now is: Today 12:19

All times are GMT + 3 Hours



You cannot post new topics in this forum
You cannot reply to topics in this forum
You cannot edit your posts in this forum
You cannot delete your posts in this forum
You cannot vote in polls in this forum
You cannot attach files in this forum
You cannot download files in this forum