Today is a free download without charge Download

Круглый год (Вероника Федорова) [2008, Россия, Мультфильм по рассказам Юрия Коваля, DVDRip]

Reply to topic
 
Author
Message

Omen ®

Longevity: 7 years 11 months

Posts: 181087

Торрент-статистика

Post 12-Mar-2015 00:00

[Quote]

Круглый год
Страна: Россия
Жанр: Мультфильм
Продолжительность: 00:38:43
Год выпуска: 2008
субтитры: нет
Режиссёр: Вероника Федорова
Описание: «Круглый год» — 12 серий-месяцев! Один из главных персонажей цикла — удивительный кот, который в зависимости от времени года становится Летним, Осенним, Зимним, Весенним… В путешествие по месяцам вместе с котами отправляются Снегири, Курица и цыплятами, Лошадка Тучка, Агафон, Ванечка Пряников и Орехьевна. В основе сценария сериала рассказы знаменитого детского писателя Юрия Коваля, причем несколько серий озвучены голосом самого автора. И, конечно, приключения веселей с музыкой. За саундтрек отвечали самые ответственные композиторы: Моцарт, Гайдн, Вивальди...- | -Качество: DVDRip
Формат: AVI
Видео: 720x528 (1.36:1), 25 fps, XviD build 73 ~2292 kbps avg, 0.24 bit/pixel
Аудио: 48 kHz, AC3, 2/0 (L,R) ch, ~224 kbps
Субтитры: отсутствуют

Список глав

WIKI
Список глав:
01. Январь - Снегири и коты
02. Февраль - Снежный всадник
03. Март - Весенний кот
04. Апрель – Певцы
05. Май – Лошадка
06. Июнь – Орехьевна
07. Июль - Летний кот
08. Август – Везуха
09. Сентябрь - Осеннее котяро
10. Октябрь – Листобой
11. Ноябрь – Орион
12. Декабрь - Снеги-белы-Доп. информация: по книге Юрия Коваля "Круглый Год, рассказы"
Озвучивание
Текст от автора: Юрий Коваль («Лошадка», «Снеги белы», «Снежный всадник»), Даниил Спиваковский («Орион»), Сергей Щипачёв («Летний кот», «Осенний кот», «Весенний кот», «Снегири и коты», «Орехьевна», «Везуха», «Листобой»)
Певцы: Александр Пожаров и Сергей Олексяк («Певцы»)
Орехьевна: Голубева Зинаида Яковлевна («Снеги белы»)
Музыка: Антонио Вивальди, Вольфганг Амадей Моцарт, Йозеф Гайдн
Аккордеон: Сергей Романов
Награды и номинации
2010 — XV Открытый Российский фестиваль анимационного кино в Суздале — Лучшее изобразительное решение (художнику-постановщику Анастасии Жакулиной за цикл «Круглый год», серии «Снеги белы» и «Снегири и коты»)
2009 — Международный фестиваль анимационных фильмов «Крок» — Диплом «За самую красивую осень» в категории «Прикладная и заказная анимация» (серия «Листобой»)

Отчет Медиаинфо

GeneralComplete name : Круглый год_DVDRip_Olu6ka.aviFormat : AVIFormat/Info : Audio Video InterleaveFile size : 700 MiBDuration : 38mn 43sOverall bit rate : 2 526 KbpsWriting application : VirtualDubModRus 1.5.10.2 (build 2542/release)Writing library : VirtualDubMod build 2542/release
VideoID : 0Format : MPEG-4 VisualFormat profile : Advanced [email protected] settings, BVOP : 1Format settings, QPel : NoFormat settings, GMC : No warppointsFormat settings, Matrix : CustomCodec ID : XVIDCodec ID/Hint : XviDDuration : 38mn 43sBit rate : 2 292 KbpsWidth : 720 pixelsHeight : 528 pixelsDisplay aspect ratio : 4:3Frame rate : 25.000 fpsColor space : YUVChroma subsampling : 4:2:0Bit depth : 8 bitsScan type : ProgressiveCompression mode : LossyBits/(Pixel*Frame) : 0.241Stream size : 635 MiB (91%)Writing library : XviD 73
AudioID : 1Format : AC-3Format/Info : Audio Coding 3Mode extension : CM (complete main)Format settings, Endianness : BigCodec ID : 2000Duration : 38mn 43sBit rate mode : ConstantBit rate : 224 KbpsChannel count : 2 channelsChannel positions : Front: L RSampling rate : 48.0 KHzBit depth : 16 bitsCompression mode : LossyStream size : 62.0 MiB (9%)Alignment : Split accross interleavesInterleave, duration : 40 ms (1.00 video frame)Interleave, preload duration : 500 ms

Скриншоты

Other forum [Profile] [PM]
Display posts from previous:    
Reply to topic

The time now is: Today 22:06

All times are GMT + 3 Hours



You cannot post new topics in this forum
You cannot reply to topics in this forum
You cannot edit your posts in this forum
You cannot delete your posts in this forum
You cannot vote in polls in this forum
You cannot attach files in this forum
You cannot download files in this forum