Today is a free download without charge Download

Зак и Мири снимают порно / Zack and Miri Make a Porno [ Кевин Смит (2008) мелодрама, комедия, BDRip 720p ]

Reply to topic
 
Author
Message

Delia ®

Gender:

Longevity: 10 years

Posts: 1821

Торрент-статистика

Post 27-Mar-2012 12:26

[Quote]

Зак и Мири снимают порно / Zack and Miri Make a Porno«What would you do to get out of debt?»--
Год выпуска: 2008
Страна: США
Жанр: мелодрама, комедия, ...
Продолжительность: 01:41:34
Перевод: Профессиональный (дублированный)
Субтитры: Russian (по дубляжу), Russian ( Ненормативная лексика , English (srt)
Режиссер: Кевин Смит
Сценарий: Кевин Смит
Продюсер: Скотт Мосье, Карла Гардини, Лаура Гринли, ...
Оператор: Дэвид Клайн
Композитор: Джеймс Л. Винейбл
Художник: Роберт Холцман, Элиз Дж. Виола, Сальвадор Перез мл., ...
Монтаж: Кевин Смит- В ролях: Элизабет Бэнкс (Elizabeth Banks), Сет Роген (Seth Rogen), Крэйг Робинсон (Craig Robinson), Джейсон Мьюз (Jason Mewes), Трейси Лордс (Traci Lords), Дженнифер Швалбах Смит (Jennifer Schwalbach Smith), Джефф Андерсон (Jeff Anderson), Кэти Морган (Katie Morgan), Брэндон Рут (Brandon Routh), Джастин Лонг (Justin Long), Том Савини (Tom Savini), Рики Мейб (Ricky Mabe), Джерри Бедноб (Gerry Bednob), Эдвард Янда (Edward Janda), Николас Ломбарди (Nicholas Lombardi), Крис Милан (Chris Milan), Кенни Хотц (Kenny Hotz), Энн Вэйд (Anne Wade), Джим Нортон (Jim Norton), Жан-Пьер Нутини (Jean-Pierre Nutini)
Описание: Зак и Мири — два лучших друга, которые занялись созданием порнографического кино для того, чтобы срубить наличных. По ходу сьёмок, Зак и Мири понимают, что они испытывают большие и сильные чувства друг к другу, чего они даже не могли представить.-Рейтинг MPAA: -- --Качество: BDRip720р
Формат: MKV
Видео кодек: AVC
Аудио кодеk: AC3
Видео: 1280x720 (16:9), 23.976 fps, AVC, 5 393 Kbps
Аудио: AC3, 384 Kbps, 48.0 KHz, 6 ch RUS Dub
Аудио:AC3, 384 Kbps, 48.0 KHz, 6 ch ENG

МедиаИнфо

Код:
General
Complete name                    : Zack and Miri Make A Porno( 2008)BDRip 720p-F.HD.mkv
Format                           : Matroska
File size                        : 4.36 GiB
Duration                         : 1h 41mn
Overall bit rate                 : 6 148 Kbps
Encoded date                     : UTC 2012-03-27 06:36:48
Writing application              : mkvmerge v5.4.0 ('Piper') built on Mar 10 2012 13:34:39
Writing library                  : libebml v1.2.3 + libmatroska v1.3.0
Video
ID                               : 1
Format                           : AVC
Format/Info                      : Advanced Video Codec
Format profile                   : [email protected]
Format settings, CABAC           : Yes
Format settings, ReFrames        : 9 frames
Muxing mode                      : Container [email protected]
Codec ID                         : V_MPEG4/ISO/AVC
Duration                         : 1h 41mn
Bit rate                         : 5 393 Kbps
Width                            : 1 280 pixels
Height                           : 720 pixels
Display aspect ratio             : 16:9
Frame rate                       : 23.976 fps
Color space                      : YUV
Chroma subsampling               : 4:2:0
Bit depth                        : 8 bits
Scan type                        : Progressive
Bits/(Pixel*Frame)               : 0.244
Stream size                      : 3.73 GiB (86%)
Title                            : FREEISLAND
Writing library                  : x264 core 122 r2184 5c85e0a
Encoding settings                : cabac=1 / ref=9 / deblock=1:-2:-2 / analyse=0x3:0x113 / me=umh / subme=10 / psy=1 / psy_rd=1.05:0.15 / mixed_ref=1 / me_range=32 / chroma_me=1 / trellis=2 / 8x8dct=1 / cqm=0 / deadzone=21,11 / fast_pskip=0 / chroma_qp_offset=-3 / threads=6 / sliced_threads=0 / nr=0 / decimate=1 / interlaced=0 / bluray_compat=0 / constrained_intra=0 / bframes=8 / b_pyramid=2 / b_adapt=2 / b_bias=0 / direct=3 / weightb=1 / open_gop=0 / weightp=2 / keyint=230 / keyint_min=22 / scenecut=40 / intra_refresh=0 / rc=2pass / mbtree=0 / bitrate=5393 / ratetol=1.0 / qcomp=0.70 / qpmin=0 / qpmax=69 / qpstep=4 / cplxblur=20.0 / qblur=0.5 / ip_ratio=1.40 / pb_ratio=1.30 / aq=2:1.00
Color primaries                  : BT.709-5, BT.1361, IEC 61966-2-4, SMPTE RP177
Transfer characteristics         : BT.709-5, BT.1361
Matrix coefficients              : BT.709-5, BT.1361, IEC 61966-2-4 709, SMPTE RP177
Audio #1
ID                               : 2
Format                           : AC-3
Format/Info                      : Audio Coding 3
Mode extension                   : CM (complete main)
Codec ID                         : A_AC3
Duration                         : 1h 41mn
Bit rate mode                    : Constant
Bit rate                         : 384 Kbps
Channel(s)                       : 6 channels
Channel positions                : Front: L C R, Side: L R, LFE
Sampling rate                    : 48.0 KHz
Bit depth                        : 16 bits
Stream size                      : 279 MiB (6%)
Language                         : Russian
Audio #2
ID                               : 3
Format                           : AC-3
Format/Info                      : Audio Coding 3
Mode extension                   : CM (complete main)
Codec ID                         : A_AC3
Duration                         : 1h 41mn
Bit rate mode                    : Constant
Bit rate                         : 384 Kbps
Channel(s)                       : 6 channels
Channel positions                : Front: L C R, Side: L R, LFE
Sampling rate                    : 48.0 KHz
Bit depth                        : 16 bits
Stream size                      : 279 MiB (6%)
Language                         :English
Text #1
ID                               : 4
Format                           : UTF-8
Codec ID                         : S_TEXT/UTF8
Codec ID/Info                    : UTF-8 Plain Text
Language                         : Russian
Text #2
ID                               : 5
Format                           : UTF-8
Codec ID                         : S_TEXT/UTF8
Codec ID/Info                    : UTF-8 Plain Text
Language                         : Russian
Text #3
ID                               : 6
Format                           : UTF-8
Codec ID                         : S_TEXT/UTF8
Codec ID/Info                    : UTF-8 Plain Text
Menu
00:00:00.000                     : en:Chapter 01
00:04:15.546                     : en:Chapter 02
00:07:39.916                     : en:Chapter 03
00:11:35.986                     : en:Chapter 04
00:13:04.617                     : en:Chapter 05
00:16:09.635                     : en:Chapter 06
00:25:58.014                     : en:Chapter 07
00:30:06.012                     : en:Chapter 08
00:33:07.986                     : en:Chapter 09
00:35:49.188                     : en:Chapter 10
00:40:20.501                     : en:Chapter 11
00:43:55.341                     : en:Chapter 12
00:47:56.331                     : en:Chapter 13
00:52:48.957                     : en:Chapter 14
00:58:01.561                     : en:Chapter 15
01:02:39.046                     : en:Chapter 16
01:09:13.566                     : en:Chapter 17
01:12:39.063                     : en:Chapter 18
01:15:39.576                     : en:Chapter 19
01:21:14.578                     : en:Chapter 20
01:24:19.595                     : en:Chapter 21
01:28:40.857                     : en:Chapter 22
01:36:04.591                     : en:Chapter 23
01:41:33.921                     : en:Chapter 24

Знаете ли Вы, что...

» Роль Мири Кевин Смит писал специально под Розарио Доусон, с которой уже работал на фильме «Клерки 2». Доусон вроде бы тоже была не против, но к моменту съемок оказалась связана обязательствами по фильму «На крючке». В итоге роль Мири ушла к актрисе Элизабет Бэнкс.
» Слово «fuck» было произнесено в фильме 229 раз.
» Кевин Смит задумал роль Зака под Сета Рогена. И если бы тот отказался, то фильм бы никогда не появился на свет.
» Первый фильм Кевина Смита со времен «Клерков», в котором не присутствуют Джейсон Ли или Бен Аффлек в какой-либо роли.


Скриншоты

     
     

_________________
Человек – это канат, натянутый между животным и сверхчеловеком, – канат над пропастью.
В человеке ценно то, что он мост, а не цель. Фридрих Ницше
Other forum [Profile] [PM]
Display posts from previous:    
Reply to topic

The time now is: Today 05:34

All times are GMT + 3 Hours



You cannot post new topics in this forum
You cannot reply to topics in this forum
You cannot edit your posts in this forum
You cannot delete your posts in this forum
You cannot vote in polls in this forum
You cannot attach files in this forum
You cannot download files in this forum