Today is a free download without charge Download

Три плюс два (Генрих Оганисян) [1963, СССР, Комедия, HDTV 1080i] [широкоэкранная версия]

Reply to topic
 
Author
Message

Omen ®

Longevity: 8 years 10 months

Posts: 181086

Торрент-статистика

Post 08-Mar-2015 15:02

[Quote]

Три плюс два-Полная широкоэкранная версия Страна: СССР
Жанр: Комедия
Год выпуска: 1963
Продолжительность: 01:35:05
Перевод: Не требуется
Cубтитры: нет
Оригинальная аудиодорожка: русский
Режиссер: Генрих Оганисян
В ролях: Андрей Миронов, Евгений Жариков, Геннадий Нилов, Наталья Кустинская, Наталья Фатеева
Описание: Трое друзей решили пожить "дикарями" на пустынном берегу Черного моря. Но отдыху героев помешали две девушки, которые поставили свой новенький "Запорожец" рядом с их "Волгой" и попытались создать невыносимые условия для соседей. Однако, вражда их была недолгой...
Доп. информация: Фильм "Три плюс два" был снят в двух версиях - для показа в кинотеатрах и по телевидению. Это широкоэкранная версия фильма, отличающаяся совершенно другим монтажом, некоторыми сценами и наполнение кадра.-SAMPLE-Тип релиза: HDTV 1080i
Контейнер: TS-Видео: MPEG4 (H264) / 1920x1080 (16:9) / 9300kbps / 25.00fps / 0.180 bit/pixel
Аудио #1: Russian / AC3 / 384 Kbps / 48 kHz / 5.1 / 16 bits
Аудио #2: Russian / MPEG Audio Layer-2 / 192 Kbps / 48 kHz / stereo / 16 bits

MediaInfo

General
ID : 1
Complete name : E:\temp\Три плюс два.ts
Format : MPEG-TS
File size : 6.93 GiB
Duration : 1h 35mn
Overall bit rate : 10.4 Mbps
Video
ID : 305 (0x131)
Menu ID : 20105 (0x4E89)
Format : AVC
Format/Info : Advanced Video Codec
Format profile : [email protected]
Format settings, CABAC : Yes
Format settings, ReFrames : 4 frames
Codec ID : 27
Duration : 1h 35mn
Bit rate : 9 307 Kbps
Width : 1 920 pixels
Height : 1 080 pixels
Display aspect ratio : 16:9
Frame rate : 25.000 fps
Standard : Component
Color space : YUV
Chroma subsampling : 4:2:0
Bit depth : 8 bits
Scan type : Interlaced
Scan order : Top Field First
Bits/(Pixel*Frame) : 0.180
Stream size : 6.20 GiB (89%)
Color primaries : BT.709-5, BT.1361, IEC 61966-2-4, SMPTE RP177
Transfer characteristics : BT.709-5, BT.1361
Matrix coefficients : BT.709-5, BT.1361, IEC 61966-2-4 709, SMPTE RP177
Audio #1
ID : 405 (0x195)
Menu ID : 20105 (0x4E89)
Format : AC-3
Format/Info : Audio Coding 3
Mode extension : CM (complete main)
Codec ID : 6
Duration : 1h 35mn
Bit rate mode : Constant
Bit rate : 384 Kbps
Channel(s) : 6 channels
Channel positions : Front: L C R, Side: L R, LFE
Sampling rate : 48.0 KHz
Bit depth : 16 bits
Video delay : -80ms
Stream size : 262 MiB (4%)
Language : Russian
Audio #2
ID : 406 (0x196)
Menu ID : 20105 (0x4E89)
Format : MPEG Audio
Format version : Version 1
Format profile : Layer 2
Codec ID : 3
Duration : 1h 35mn
Bit rate mode : Constant
Bit rate : 192 Kbps
Channel(s) : 2 channels
Sampling rate : 48.0 KHz
Video delay : -80ms
Stream size : 131 MiB (2%)
Language : Russian

Скриншоты

Other forum [Profile] [PM]
Display posts from previous:    
Reply to topic

The time now is: Today 22:08

All times are GMT + 3 Hours



You cannot post new topics in this forum
You cannot reply to topics in this forum
You cannot edit your posts in this forum
You cannot delete your posts in this forum
You cannot vote in polls in this forum
You cannot attach files in this forum
You cannot download files in this forum