Today is a free download without charge Download

Противостояние / The One (Джеймс Вонг / James Wong) [2001 г., Фантастика,Боевик,Триллер, DVD9]

Reply to topic
 
Author
Message

Стасмэн ®

Gender:

Longevity: 10 years

Posts: 133

Торрент-статистика

Post 25-Mar-2012 11:55

[Quote]

Противостояние / The One
Год выпуска: 2001
Страна: США
Жанр: Фантастика,Боевик,Триллер
Продолжительность: 01:27:15
Перевод: Профессиональный (многоголосый, закадровый) + Одноголосый закадровый (Живов)
Режиссер: Джеймс Вонг / James Wong
Продюссер: Стив Чэсмэн, Тодд Гарнер, Глен Морган
Сценарий: Глен Морган, Джеймс Вонг
Дата мировой премьеры: 2 ноября 2001
Дата российской премьеры: 27 декабря 2001
Релиз на Blu-Ray: 11 июня 2009
Бюджет: $49 000 000
В ролях: Джет Ли,Джейсон Стэтхэм,Карла Гуджино,Делрой Линдо,Джеймс Моррисон,Дилан Бруно,Ричард Стейнметц,Стив Рэнкин,Таккер Смоллвуд,Харриет Сэнсом Харрис...
Описание: Силы его растут с каждой новой жертвой, их жизненная энергия аккумулируется в нем, наделяя его невероятными способностями. Никто не знает, что случится с хрупким равновесием вселенных, если Габриель достигнет своей цели — уничтожить всех двойников. Его мечта уже почти становится реальностью, когда на пути Юло становится Гэйб — полицейский из Лос-Анджелеса


Качество: DVD9
Формат: DVD Video
Видео кодек: MPEG2
Аудио кодек: AC3
Видео: NTSC 16:9 (720x480) VBR Auto Letterboxed , ~ 29.970 fps ; ~ 8763.48 kbps avg
Аудио:
Audio #1: Russian DTS, 3/2 (L,C,R,SL,SR), 768 kbps, Delay 0 mSec
Audio #2: English DTS, 3/2 (L,C,R,SL,SR), 768 kbps, Delay 0 mSec
Audio #3: Russian AC3, 3/2 (L,C,R,SL,SR)+LFE ch, 384 kbps, Delay 0 mSec Юрий Живов

MediaInfo

Код:
Полное имя                               : G:\DVD\Противостояние DVD9\VIDEO_TS\VTS_02_1.VOB
Формат                                   : MPEG-PS
Размер файла                             : 25,4 Мбайт
Продолжительность                        : 32 с.
Режим общего битрейта                    : Переменный
Общий поток                              : 6589 Кбит/сек
Видео
Идентификатор                            : 224 (0xE0)
Формат                                   : MPEG Video
Версия формата                           : Version 2
Профиль формата                          : [email protected]
Параметр BVOP формата                    : Да
Параметр матрицы формата                 : Выборочная
Продолжительность                        : 32 с.
Вид битрейта                             : Переменный
Битрейт                                  : 4565 Кбит/сек
Максимальный битрейт                     : 9800 Кбит/сек
Ширина                                   : 720 пикселей
Высота                                   : 480 пикселей
Соотношение сторон                       : 16:9
Частота кадров                           : 29,970 кадров/сек
Стандарт вещания                         : NTSC
Цветовое пространство                    : YUV
Субдискретизация насыщенности            : 4:2:0
Битовая глубина                          : 8 бит
Тип развёртки                            : Чересстрочная
Порядок развёртки                        : Верхнее поле первое
Метод сжатия                             : С потерями
Бит/(Пиксели*Кадры)                      : 0.441
Размер потока                            : 17,6 Мбайт (69%)
Аудио #1
Идентификатор                            : 189 (0xBD)-130 (0x82)
Формат                                   : AC-3
Формат/Информация                        : Audio Coding 3
Расширение режима                        : CM (complete main)
Режим смешивания                         : DVD-Video
Продолжительность                        : 32 с.
Вид битрейта                             : Постоянный
Битрейт                                  : 384 Кбит/сек
Каналы                                   : 6 каналов
Расположение каналов                     : Front: L C R, Side: L R, LFE
Частота                                  : 48,0 КГц
Битовая глубина                          : 16 бит
Метод сжатия                             : С потерями
Размер потока                            : 1,48 Мбайт (6%)
Аудио #2
Идентификатор                            : 189 (0xBD)-136 (0x88)
Формат                                   : DTS
Формат/Информация                        : Digital Theater Systems
Режим смешивания                         : DVD-Video
Продолжительность                        : 32 с.
Вид битрейта                             : Постоянный
Битрейт                                  : 755 Кбит/сек
Каналы                                   : 6 каналов
Расположение каналов                     : Front: L C R, Side: L R, LFE
Частота                                  : 48,0 КГц
Битовая глубина                          : 24 бит
Метод сжатия                             : С потерями
Размер потока                            : 2,91 Мбайт (11%)
Аудио #3
Идентификатор                            : 189 (0xBD)-137 (0x89)
Формат                                   : DTS
Формат/Информация                        : Digital Theater Systems
Режим смешивания                         : DVD-Video
Продолжительность                        : 32 с.
Вид битрейта                             : Постоянный
Битрейт                                  : 755 Кбит/сек
Каналы                                   : 6 каналов
Расположение каналов                     : Front: L C R, Side: L R, LFE
Частота                                  : 48,0 КГц
Битовая глубина                          : 24 бит
Метод сжатия                             : С потерями
Размер потока                            : 2,91 Мбайт (11%)

Скриншоты

       
Other forum [Profile] [PM]
Display posts from previous:    
Reply to topic

The time now is: Today 03:59

All times are GMT + 3 Hours



You cannot post new topics in this forum
You cannot reply to topics in this forum
You cannot edit your posts in this forum
You cannot delete your posts in this forum
You cannot vote in polls in this forum
You cannot attach files in this forum
You cannot download files in this forum