Today is a free download without charge Download

Байки Митяя (Алексей Кирющенко) (1-20 серии из 20) [2012 г., комедия, DVDRip-AVC]

Reply to topic
 
Author
Message

sassad ®

Gender:

Longevity: 10 years

Posts: 1214

Location: Галич

Торрент-статистика

Post 24-Mar-2012 20:21

[Quote]

Байки Митяя--1-20 серии из 20 Год выпуска: 2012
Страна: Украина
Жанр: комедия
Продолжительность: 20 x ~ 00:27:00
Перевод: Не требуется-Режиссер: Алексей Кирющенко
Продюссер: Владимир Зеленский, Андрей Яковлев, Сергей Шефир
Сценарий: Андрей Яковлев, Юрий Костюк, Андрей Ильков

В ролях: Николай Добрынин, Алексей Смолка, Михаил Романов, Виктор Андриенко, Виктор Сарайкин, Александр Игнатуша, Евгений Кошевой, Егор Крутоголов, Юрий Крапов, Ольга Радчук-Описание: Митяй неисправимый оптимист и романтик, а еще неугомонный фантазер и великолепный рассказчик. В принципе эти черты его характера - единственное богатство, нажитое им за все время жизни в ПГТ Кучугуры. Каждый раз, попадая в различные житейские ситуации, Митяй дабы выкрутиться из положения, рассказывает собеседнику историю из своей жизни, или если угодно байку. Но байка – она ведь на то и есть байка, что даже правда в ней смотрится несколько утрированной и приукрашенной. Вот и получается, что Митяй служил в секретных войсках, был личным водителем Брежнева, слетал на Луну еще до американцев, первым придумал радио, спас жизнь Горбачеву, был первым солистом "Ласкового мая" и т.д. и т.п. Верить или нет – дело ваше. Но Митяй клянется, что так все и было-Качество: DVDRip-AVC
Формат: MKV
Видео кодек: H.26x
Аудио кодек: AC3
Видео: MPEG-4 AVC, ~ 1762 Кбит/с, [email protected]
Аудио: Русский (АС3, 2 ch, 192 Кбит/с, 256 Кбит/с)

-

M.I

Код:
Полное имя                       : E:\Bajki.Mitjaja.(01.serija.iz.20).2011.x264.DVDRip.(AVC).tahiy.mkv
Формат                           : Matroska
Версия формата                   : Version 1
Размер файла                     : 371 Мбайт
Продолжительность                : 26 м.
Общий поток                      : 1994 Кбит/сек
Название фильма                  : - = Rip by tahiy для kinozal.tv = -
Дата кодирования                 : UTC 2012-03-19 17:44:40
Программа кодирования            : mkvmerge v2.1.0 ('Another Place To Fall') built on Aug 19 2007 13:40:07
Библиотека кодирования           : libebml v0.7.7 + libmatroska v0.8.1
Видео
Идентификатор                    : 1
Формат                           : AVC
Формат/Информация                : Advanced Video Codec
Профиль формата                  : [email protected]
Параметр CABAC формата           : Да
Параметр ReFrames формата        : 8 кадров
Идентификатор кодека             : V_MPEG4/ISO/AVC
Продолжительность                : 26 м.
Битрейт                          : 1800 Кбит/сек
Ширина                           : 720 пикселей
Высота                           : 576 пикселей
Соотношение сторон               : 16:9
Частота кадров                   : 25,000 кадров/сек
Стандарт вещания                 : PAL
Цветовое пространство            : YUV
Субдискретизация насыщенности    : 4:2:0
Битовая глубина                  : 8 бит
Тип развёртки                    : Прогрессивная
Бит/(Пиксели*Кадры)              : 0.174
Размер потока                    : 328 Мбайт (88%)
Заголовок                        : - Байки Митяя - = Rip by tahiy для kinozal.tv = -
Библиотека кодирования           : x264 core 120 r2164 da19765
Настройки программы              : cabac=1 / ref=8 / deblock=1:-2:-1 / analyse=0x3:0x133 / me=hex / subme=9 / psy=1 / psy_rd=1.00:0.20 / mixed_ref=1 / me_range=16 / chroma_me=1 / trellis=2 / 8x8dct=1 / cqm=0 / deadzone=21,11 / fast_pskip=0 / chroma_qp_offset=-3 / threads=3 / sliced_threads=0 / nr=0 / decimate=1 / interlaced=0 / bluray_compat=0 / constrained_intra=0 / bframes=3 / b_pyramid=2 / b_adapt=1 / b_bias=0 / direct=3 / weightb=0 / open_gop=0 / weightp=2 / keyint=50 / keyint_min=25 / scenecut=40 / intra_refresh=0 / rc_lookahead=40 / rc=2pass / mbtree=1 / bitrate=1800 / ratetol=1.0 / qcomp=0.60 / qpmin=10 / qpmax=51 / qpstep=4 / cplxblur=20.0 / qblur=0.5 / ip_ratio=1.40 / aq=1:1.00
Язык                             : English
Default                          : Да
Forced                           : Нет
Аудио
Идентификатор                    : 2
Формат                           : AC-3
Формат/Информация                : Audio Coding 3
Расширение режима                : CM (complete main)
Идентификатор кодека             : A_AC3
Продолжительность                : 26 м.
Вид битрейта                     : Постоянный
Битрейт                          : 192 Кбит/сек
Каналы                           : 2 канала
Расположение каналов             : Front: L R
Частота                          : 48,0 КГц
Битовая глубина                  : 16 бит
Метод сжатия                     : С потерями
Размер потока                    : 35,7 Мбайт (10%)
Default                          : Да
Forced                           : Нет
Полное имя                       : E:\Bajki.Mitjaja.(10.serija.iz.20).2011.x264.DVDRip.(AVC).tahiy.mkv
Формат                           : Matroska
Версия формата                   : Version 1
Размер файла                     : 371 Мбайт
Продолжительность                : 26 м.
Общий поток                      : 1995 Кбит/сек
Название фильма                  : - = Rip by tahiy для kinozal.tv = -
Дата кодирования                 : UTC 2012-03-22 16:41:40
Программа кодирования            : mkvmerge v2.1.0 ('Another Place To Fall') built on Aug 19 2007 13:40:07
Библиотека кодирования           : libebml v0.7.7 + libmatroska v0.8.1
Видео
Идентификатор                    : 1
Формат                           : AVC
Формат/Информация                : Advanced Video Codec
Профиль формата                  : [email protected]
Параметр CABAC формата           : Да
Параметр ReFrames формата        : 8 кадров
Идентификатор кодека             : V_MPEG4/ISO/AVC
Продолжительность                : 26 м.
Битрейт                          : 1800 Кбит/сек
Ширина                           : 720 пикселей
Высота                           : 576 пикселей
Соотношение сторон               : 16:9
Частота кадров                   : 25,000 кадров/сек
Стандарт вещания                 : PAL
Цветовое пространство            : YUV
Субдискретизация насыщенности    : 4:2:0
Битовая глубина                  : 8 бит
Тип развёртки                    : Прогрессивная
Бит/(Пиксели*Кадры)              : 0.174
Размер потока                    : 328 Мбайт (88%)
Заголовок                        : - Байки Митяя - = Rip by tahiy для kinozal.tv = -
Библиотека кодирования           : x264 core 120 r2164 da19765
Настройки программы              : cabac=1 / ref=8 / deblock=1:-2:-1 / analyse=0x3:0x133 / me=hex / subme=9 / psy=1 / psy_rd=1.00:0.20 / mixed_ref=1 / me_range=16 / chroma_me=1 / trellis=2 / 8x8dct=1 / cqm=0 / deadzone=21,11 / fast_pskip=0 / chroma_qp_offset=-3 / threads=3 / sliced_threads=0 / nr=0 / decimate=1 / interlaced=0 / bluray_compat=0 / constrained_intra=0 / bframes=3 / b_pyramid=2 / b_adapt=1 / b_bias=0 / direct=3 / weightb=0 / open_gop=0 / weightp=2 / keyint=50 / keyint_min=25 / scenecut=40 / intra_refresh=0 / rc_lookahead=40 / rc=2pass / mbtree=1 / bitrate=1800 / ratetol=1.0 / qcomp=0.60 / qpmin=10 / qpmax=51 / qpstep=4 / cplxblur=20.0 / qblur=0.5 / ip_ratio=1.40 / aq=1:1.00
Язык                             : English
Default                          : Да
Forced                           : Нет
Аудио
Идентификатор                    : 2
Формат                           : AC-3
Формат/Информация                : Audio Coding 3
Расширение режима                : CM (complete main)
Идентификатор кодека             : A_AC3
Продолжительность                : 26 м.
Вид битрейта                     : Постоянный
Битрейт                          : 192 Кбит/сек
Каналы                           : 2 канала
Расположение каналов             : Front: L R
Частота                          : 48,0 КГц
Битовая глубина                  : 16 бит
Метод сжатия                     : С потерями
Размер потока                    : 35,7 Мбайт (10%)
Default                          : Да
Forced                           : Нет
Полное имя                       : E:\Bajki.Mitjaja.(19.serija.iz.20).2011.x264.DVDRip.(AVC).tahiy.mkv
Формат                           : Matroska
Версия формата                   : Version 1
Размер файла                     : 358 Мбайт
Продолжительность                : 26 м.
Общий поток                      : 1909 Кбит/сек
Название фильма                  : - = Rip by tahiy для kinozal.tv = -
Дата кодирования                 : UTC 2012-03-23 19:24:11
Программа кодирования            : mkvmerge v2.1.0 ('Another Place To Fall') built on Aug 19 2007 13:40:07
Библиотека кодирования           : libebml v0.7.7 + libmatroska v0.8.1
Видео
Идентификатор                    : 1
Формат                           : AVC
Формат/Информация                : Advanced Video Codec
Профиль формата                  : [email protected]
Параметр CABAC формата           : Да
Параметр ReFrames формата        : 8 кадров
Идентификатор кодека             : V_MPEG4/ISO/AVC
Продолжительность                : 26 м.
Битрейт                          : 1650 Кбит/сек
Ширина                           : 720 пикселей
Высота                           : 576 пикселей
Соотношение сторон               : 16:9
Частота кадров                   : 25,000 кадров/сек
Стандарт вещания                 : PAL
Цветовое пространство            : YUV
Субдискретизация насыщенности    : 4:2:0
Битовая глубина                  : 8 бит
Тип развёртки                    : Прогрессивная
Бит/(Пиксели*Кадры)              : 0.159
Размер потока                    : 303 Мбайт (85%)
Заголовок                        : - Байки Митяя - = Rip by tahiy для kinozal.tv = -
Библиотека кодирования           : x264 core 120 r2164 da19765
Настройки программы              : cabac=1 / ref=8 / deblock=1:-2:-1 / analyse=0x3:0x133 / me=hex / subme=9 / psy=1 / psy_rd=1.00:0.20 / mixed_ref=1 / me_range=16 / chroma_me=1 / trellis=2 / 8x8dct=1 / cqm=0 / deadzone=21,11 / fast_pskip=0 / chroma_qp_offset=-3 / threads=3 / sliced_threads=0 / nr=0 / decimate=1 / interlaced=0 / bluray_compat=0 / constrained_intra=0 / bframes=3 / b_pyramid=2 / b_adapt=1 / b_bias=0 / direct=3 / weightb=0 / open_gop=0 / weightp=2 / keyint=50 / keyint_min=25 / scenecut=40 / intra_refresh=0 / rc_lookahead=40 / rc=2pass / mbtree=1 / bitrate=1650 / ratetol=1.0 / qcomp=0.60 / qpmin=10 / qpmax=51 / qpstep=4 / cplxblur=20.0 / qblur=0.5 / ip_ratio=1.40 / aq=1:1.00
Язык                             : English
Default                          : Да
Forced                           : Нет
Аудио
Идентификатор                    : 2
Формат                           : AC-3
Формат/Информация                : Audio Coding 3
Расширение режима                : CM (complete main)
Идентификатор кодека             : A_AC3
Продолжительность                : 26 м.
Вид битрейта                     : Постоянный
Битрейт                          : 256 Кбит/сек
Каналы                           : 2 канала
Расположение каналов             : Front: L R
Частота                          : 48,0 КГц
Битовая глубина                  : 16 бит
Метод сжатия                     : С потерями
Размер потока                    : 48,0 Мбайт (13%)
Default                          : Да
Forced                           : Нет
-

Скриншоты

           

_________________
Other forum [Profile] [PM]
Display posts from previous:    
Reply to topic

The time now is: Today 04:41

All times are GMT + 3 Hours



You cannot post new topics in this forum
You cannot reply to topics in this forum
You cannot edit your posts in this forum
You cannot delete your posts in this forum
You cannot vote in polls in this forum
You cannot attach files in this forum
You cannot download files in this forum