Today is a free download without charge Download

Ромео должен умереть / Romeo must die (Анджей Бартковяк/Andrzej Bartkovyak) [2000 г., Боевик, Триллер, Криминал, DVD9]

Reply to topic
 
Author
Message

Стасмэн ®

Gender:

Longevity: 10 years

Posts: 133

Торрент-статистика

Post 24-Mar-2012 19:11

[Quote]

Ромео должен умереть / Romeo must die
Год выпуска: 2000
Страна: США
Жанр: Боевик, Триллер, Криминал
Продолжительность: 01:59:23
Перевод: Профессиональный (многоголосый, закадровый)
Режиссер: Анджей Бартковяк / Andrzej Bartkovyak
Продюссер: Уоррен Карр, Дэн Краччиоло, Митчел Кэпнер
Сценарий: Эрик Бернт, Джон Джарелл, Митчел Кэпнер
Бюджет: $25 000 000
Премьера в мире: 20 марта 2000
В ролях: Джет Ли,ААлия,Исайя Вашингтон,Расселл Вонг,DMX,Делрой Линдо,Д.Б. Вудсайд,Генри О,Джонкит Ли,Эдоардо Баллерин...
Описание: У них есть оружие. У них есть деньги. Но у них нет никаких шансов против бывшего полицейского Хан Синга. Джет Ли играет крутого и готового на все Хана, не без взаимности влюбленного в Триш О Дэй, несмотря на то, что их семьи ведут жестокую войну за передел в Окленде. Опасности объединяют влюбленных, когда они пытаются выяснить истинные причины кровавых разборок.

Качество: DVD9
Формат: DVD Video
Видео кодек: MPEG2
Аудио кодек: AC3
Видео: NTSC 16:9 (720x480) VBR Auto Letterboxed , 23.976 fps ; ~ 6080.76 kbps avg
Аудио:
Audio #1: English AC3, 3/2 (L,C,R,SL,SR)+LFE ch, 384 kbps, Delay 0 mSec
Audio #2: Russian AC3, 3/2 (L,C,R,SL,SR)+LFE ch, 448 kbps, Delay 0 mSec

MediaInfo

Код:
Полное имя                               : G:\DVD\Ромео Должен Умереть DVD9\VIDEO_TS\VTS_01_6.VOB
Формат                                   : MPEG-PS
Размер файла                             : 36,6 Мбайт
Продолжительность                        : 55 с.
Режим общего битрейта                    : Переменный
Общий поток                              : 5527 Кбит/сек
Видео
Идентификатор                            : 224 (0xE0)
Формат                                   : MPEG Video
Версия формата                           : Version 2
Профиль формата                          : [email protected]
Параметр BVOP формата                    : Да
Параметр матрицы формата                 : Выборочная
Параметр GOP формата                     : M=3, N=12
Продолжительность                        : 55 с.
Вид битрейта                             : Переменный
Битрейт                                  : 4585 Кбит/сек
Максимальный битрейт                     : 7500 Кбит/сек
Ширина                                   : 720 пикселей
Высота                                   : 480 пикселей
Соотношение сторон                       : 16:9
Частота кадров                           : 23,976 кадра/сек
Стандарт вещания                         : NTSC
Цветовое пространство                    : YUV
Субдискретизация насыщенности            : 4:2:0
Битовая глубина                          : 8 бит
Тип развёртки                            : Прогрессивная
Порядок развёртки                        : 2:3 Pulldown
Метод сжатия                             : С потерями
Бит/(Пиксели*Кадры)                      : 0.553
Размер потока                            : 30,3 Мбайт (83%)
Аудио #1
Идентификатор                            : 189 (0xBD)-128 (0x80)
Формат                                   : AC-3
Формат/Информация                        : Audio Coding 3
Расширение режима                        : CM (complete main)
Режим смешивания                         : DVD-Video
Продолжительность                        : 55 с.
Вид битрейта                             : Постоянный
Битрейт                                  : 384 Кбит/сек
Каналы                                   : 6 каналов
Расположение каналов                     : Front: L C R, Side: L R, LFE
Частота                                  : 48,0 КГц
Битовая глубина                          : 16 бит
Метод сжатия                             : С потерями
Задержка видео                           : -239 мс.
Размер потока                            : 2,53 Мбайт (7%)
Аудио #2
Идентификатор                            : 189 (0xBD)-129 (0x81)
Формат                                   : AC-3
Формат/Информация                        : Audio Coding 3
Расширение режима                        : CM (complete main)
Режим смешивания                         : DVD-Video
Продолжительность                        : 55 с.
Вид битрейта                             : Постоянный
Битрейт                                  : 448 Кбит/сек
Каналы                                   : 6 каналов
Расположение каналов                     : Front: L C R, Side: L R, LFE
Частота                                  : 48,0 КГц
Битовая глубина                          : 16 бит
Метод сжатия                             : С потерями
Задержка видео                           : -271 мс.
Размер потока                            : 2,95 Мбайт (8%)

Скриншоты

         


Last edited by Стасмэн on 2012-03-24 19:29; edited 3 times in total
Other forum [Profile] [PM]
Display posts from previous:    
Reply to topic

The time now is: Today 11:33

All times are GMT + 3 Hours



You cannot post new topics in this forum
You cannot reply to topics in this forum
You cannot edit your posts in this forum
You cannot delete your posts in this forum
You cannot vote in polls in this forum
You cannot attach files in this forum
You cannot download files in this forum