Today is a free download without charge Download

Поцелуй дракона / Kiss of the Dragon (Крис Наон / Kris Naon) [2001 г., Боевик, Триллер, Криминал, DVD9]

Reply to topic
 
Author
Message

Стасмэн ®

Gender:

Longevity: 10 years

Posts: 133

Торрент-статистика

Post 24-Mar-2012 14:31

[Quote]

Поцелуй дракона / Kiss of the Dragon
Год выпуска: 2001
Страна: США,Франция
Жанр: Боевик, Триллер, Криминал
Продолжительность: 01:38:35
Перевод: Профессиональный(дублированный) + Одноголосый закадровый
Режиссер: Крис Наон / Kris Naon
Продюссер: Люк Бессон, Стив Чэсмэн, Хэппи Уолтерс
Сценарий: Люк Бессон, Роберт Марк Кэмен, Джет Ли
Бюджет: $25 000 000
Премьера в мире: 25 июня 2001
В ролях: Джет Ли, Бриджит Фонда, Чеки Карио, Макс Райан, Рик Янг, Берт Квук, Лоуренс Эшли, Сирил Раффаэлли, Дидье Азулай..
Описание: Офицер китайской разведки приезжает из Гонконга в Париж, чтобы участвовать в опасной операции, цель которой — заманить в ловушку и взять с поличным крупного наркобарона. Но дела идут совершенно непредсказуемо.Герой попадает в двойную ловушку и становится подозреваемым в убийстве c неопровержимыми уликами против него. Его жизнь теперь зависит от того, сумеет ли он уйти от преследования и доказать свою невиновность.

Качество: DVD9
Формат: DVD Video
Видео кодек: MPEG2
Аудио кодек: AC3
Видео: NTSC 16:9 (720x480) VBR Auto Letterboxed , ~ 23.976 fps ; ~ 9961.85 kbps avg
Аудио:
Audio #1: Russian AC3, 3/2 (L,C,R,SL,SR)+LFE ch, 448 kbps, Delay 0 mSec-Дублированный
Audio #2: Russian AC3, 3/2 (L,C,R,SL,SR)+LFE ch, 448 kbps, Delay 0 mSec-Одноголосый закадровый - Гаврилов
Audio #3: English AC3, 3/2 (L,C,R,SL,SR)+LFE ch, 448 kbps, Delay 0 mSec

MediaInfo

Код:
Полное имя : G:\DVD\Поцелуй дракона DVD9\VIDEO_TS\VTS_05_5.VOB
Формат : MPEG-PS
Размер файла : 1024 Мбайт
Продолжительность : 14 м.
Режим общего битрейта : Переменный
Общий поток : 9871 Кбит/сек
Видео
Идентификатор : 224 (0xE0)
Формат : MPEG Video
Версия формата : Version 2
Профиль формата : [email protected]
Параметр BVOP формата : Да
Параметр матрицы формата : Выборочная
Параметр GOP формата : M=3, N=12
Продолжительность : 14 м.
Вид битрейта : Переменный
Битрейт : 8331 Кбит/сек
Максимальный битрейт : 8448 Кбит/сек
Ширина : 720 пикселей
Высота : 480 пикселей
Соотношение сторон : 16:9
Частота кадров : 23,976 кадра/сек
Стандарт вещания : NTSC
Цветовое пространство : YUV
Субдискретизация насыщенности : 4:2:0
Битовая глубина : 8 бит
Тип развёртки : Прогрессивная
Порядок развёртки : 2:3 Pulldown
Метод сжатия : С потерями
Бит/(Пиксели*Кадры) : 1.005
Размер потока : 864 Мбайт (84%)
Аудио #1
Идентификатор : 189 (0xBD)-128 (0x80)
Формат : AC-3
Формат/Информация : Audio Coding 3
Расширение режима : CM (complete main)
Режим смешивания : DVD-Video
Продолжительность : 14 м.
Вид битрейта : Постоянный
Битрейт : 448 Кбит/сек
Каналы : 6 каналов
Расположение каналов : Front: L C R, Side: L R, LFE
Частота : 48,0 КГц
Битовая глубина : 16 бит
Метод сжатия : С потерями
Задержка видео : -482 мс.
Размер потока : 46,5 Мбайт (5%)
Аудио #2
Идентификатор : 189 (0xBD)-129 (0x81)
Формат : AC-3
Формат/Информация : Audio Coding 3
Расширение режима : CM (complete main)
Режим смешивания : DVD-Video
Продолжительность : 14 м.
Вид битрейта : Постоянный
Битрейт : 448 Кбит/сек
Каналы : 6 каналов
Расположение каналов : Front: L C R, Side: L R, LFE
Частота : 48,0 КГц
Битовая глубина : 16 бит
Метод сжатия : С потерями
Задержка видео : -482 мс.
Размер потока : 46,5 Мбайт (5%)
Аудио #3
Идентификатор : 189 (0xBD)-130 (0x82)
Формат : AC-3
Формат/Информация : Audio Coding 3
Расширение режима : CM (complete main)
Режим смешивания : DVD-Video
Продолжительность : 14 м.
Вид битрейта : Постоянный
Битрейт : 448 Кбит/сек
Каналы : 6 каналов
Расположение каналов : Front: L C R, Side: L R, LFE
Частота : 48,0 КГц
Битовая глубина : 16 бит
Метод сжатия : С потерями
Задержка видео : -482 мс.
Размер потока : 46,5 Мбайт (5%)

Скриншоты

       
Other forum [Profile] [PM]
Display posts from previous:    
Reply to topic

The time now is: Today 11:25

All times are GMT + 3 Hours



You cannot post new topics in this forum
You cannot reply to topics in this forum
You cannot edit your posts in this forum
You cannot delete your posts in this forum
You cannot vote in polls in this forum
You cannot attach files in this forum
You cannot download files in this forum