Today is a free download without charge Download

Фил Коллинз: концерт в Монтре-2004 / Phil Collins: Live At Montreux (2004) [2012 г., progressive rock, pop, jazz fusion, BDRip 720p]

Reply to topic
 
Author
Message

Delia ®

Gender:

Longevity: 10 years

Posts: 1821

Торрент-статистика

Post 24-Mar-2012 12:56

[Quote]

Фил Коллинз: концерт в Монтре-2004
Phil Collins: Live At Montreux-- Выпущено:Eagle Rock Entertainment
Год выпуска: 2004
Год издания: 2012
Жанр: progressive rock, pop, jazz fusion
Страна: Германия
Студия: Montreux Sounds
Продолжительность: 2.17.07--Исполнители: Фил Коллинз, Эрик Клэптон, Куинси Джонс
Описание фильма:
В марте 2012г. в формате Blu-Ray состоится релиз концерта "Live At Montreux 2004", выступление Фила Коллинза в "Джазовом Фестивале в Монтрё". В качестве бонусного материала - ещё одно выступление Фила в Монтрё в составе "The Phil Collins Big Band" от 1996 года---- ---Качество:BDRip 720p
Формат: MKV
Видео кодек:h.264
Аудио кодек: DTS
Видео: 5424 Кбит/сек, 1280*720 (16:9), в 29,970 кадров/сек, AVC ([email protected])
Аудио: English, 1510 Кбит/сек, 48,0 КГц, 16 бит, 6 каналов, DTS--

Треклист

.
Код:
1.Drums, Drums and More Drums
2. Something Happened On the Way to Heaven
3. Against All Odds
4. Don't Lose My Number
5. You'll Be in My Heart
6. One More Night
7. Can't Stop Lovin' You
8. Hang in Long Enough
9. True Colors
10. Come With Me
11. Groovy Kind of Love
12. I Missed Again
13. Another Day in Paradise
14. No Way Out
15. Separate Lives
16. In the Air Tonight
17. Dance Into the Light
18. You Can't Hurry Love
19. Two Hearts
20. Wear My Hat
21. Easy Lover
22. Sussudio
23. It's Not Too Late
24. Take Me Home

MI

Код:
Общее
Уникальный идентификатор         : 255069771177407534508773187640175073674 (0xBFE4A6A95E50914492DFEC56988B998A)
Полное имя                       : E:торрентPhil Collins - Live At Montreux (2004)BDRip720p-F.HD.mkv
Формат                           : Matroska
Версия формата                   : Version 2
Размер файла                     : 6,64 Гбайт
Продолжительность                : 2 ч. 17 м.
Общий поток                      : 6934 Кбит/сек
Дата кодирования                 : UTC 2012-03-24 05:15:12
Программа кодирования            : mkvmerge v5.4.0 ('Piper') built on Mar 10 2012 13:34:39
Библиотека кодирования           : libebml v1.2.3 + libmatroska v1.3.0
Видео
Идентификатор                    : 1
Формат                           : AVC
Формат/Информация                : Advanced Video Codec
Профиль формата                  : [email protected]
Параметр CABAC формата           : Да
Параметр ReFrames формата        : 9 кадров
Идентификатор кодека             : V_MPEG4/ISO/AVC
Продолжительность                : 2 ч. 17 м.
Битрейт                          : 5424 Кбит/сек
Ширина                           : 1280 пикселей
Высота                           : 720 пикселей
Соотношение сторон               : 16:9
Частота кадров                   : 29,970 кадров/сек
Цветовое пространство            : YUV
Субдискретизация насыщенности    : 4:2:0
Битовая глубина                  : 8 бит
Тип развёртки                    : Прогрессивная
Бит/(Пиксели*Кадры)              : 0.196
Размер потока                    : 5,06 Гбайт (76%)
Заголовок                        : FREEISLAND
Библиотека кодирования           : x264 core 122 r2184 5c85e0a
Настройки программы              : cabac=1 / ref=9 / deblock=1:-1:-1 / analyse=0x3:0x113 / me=umh / subme=11 / psy=1 / psy_rd=1.10:0.15 / mixed_ref=1 / me_range=32 / chroma_me=1 / trellis=2 / 8x8dct=1 / cqm=0 / deadzone=21,11 / fast_pskip=0 / chroma_qp_offset=-3 / threads=6 / sliced_threads=0 / nr=0 / decimate=1 / interlaced=0 / bluray_compat=0 / constrained_intra=0 / bframes=7 / b_pyramid=2 / b_adapt=2 / b_bias=0 / direct=3 / weightb=1 / open_gop=0 / weightp=2 / keyint=300 / keyint_min=27 / scenecut=40 / intra_refresh=0 / rc=2pass / mbtree=0 / bitrate=5424 / ratetol=1.0 / qcomp=0.80 / qpmin=0 / qpmax=69 / qpstep=4 / cplxblur=20.0 / qblur=0.5 / ip_ratio=1.40 / pb_ratio=1.20 / aq=2:0.90
Язык                             : English
Основные цвета                   : BT.709-5, BT.1361, IEC 61966-2-4, SMPTE RP177
Характеристики трансфера         : BT.709-5, BT.1361
Коэффициенты матрицы             : BT.709-5, BT.1361, IEC 61966-2-4 709, SMPTE RP177
Аудио
Идентификатор                    : 2
Формат                           : DTS
Формат/Информация                : Digital Theater Systems
Идентификатор кодека             : A_DTS
Продолжительность                : 2 ч. 17 м.
Вид битрейта                     : Постоянный
Битрейт                          : 1510 Кбит/сек
Каналы                           : 6 каналов
Расположение каналов             : Front: L C R, Side: L R, LFE
Частота                          : 48,0 КГц
Битовая глубина                  : 16 бит
Метод сжатия                     : С потерями
Размер потока                    : 1,45 Гбайт (22%)
Язык                             : English
Меню
00:00:00.000                     : en:Chapter 01
00:08:56.569                     : en:Chapter 02
00:14:21.994                     : en:Chapter 03
00:18:25.971                     : en:Chapter 04
00:25:11.977                     : en:Chapter 05
00:29:37.976                     : en:Chapter 06
00:35:02.967                     : en:Chapter 07
00:39:35.973                     : en:Chapter 08
00:45:11.642                     : en:Chapter 09
00:51:12.002                     : en:Chapter 10
00:56:24.981                     : en:Chapter 11
01:00:05.001                     : en:Chapter 12
01:04:26.996                     : en:Chapter 13
01:10:07.002                     : en:Chapter 14
01:14:52.020                     : en:Chapter 15
01:20:52.047                     : en:Chapter 16
01:28:47.989                     : en:Chapter 17
01:33:21.996                     : en:Chapter 18
01:36:27.982                     : en:Chapter 19
01:38:44.685                     : en:Chapter 20
01:43:39.012                     : en:Chapter 21
01:48:41.982                     : en:Chapter 22
01:59:27.960                     : en:Chapter 23
02:03:34.006                     : en:Chapter 24
02:17:06.585                     : en:Chapter 25

Скриншоты

       
     

_________________
Человек – это канат, натянутый между животным и сверхчеловеком, – канат над пропастью.
В человеке ценно то, что он мост, а не цель. Фридрих Ницше
Other forum [Profile] [PM]
Display posts from previous:    
Reply to topic

The time now is: Today 18:47

All times are GMT + 3 Hours



You cannot post new topics in this forum
You cannot reply to topics in this forum
You cannot edit your posts in this forum
You cannot delete your posts in this forum
You cannot vote in polls in this forum
You cannot attach files in this forum
You cannot download files in this forum