Today is a free download without charge Download

Интераура | Нейронастрои (2014) [FLAC]

Reply to topic
 
Author
Message

Omen ®

Longevity: 8 years 2 months

Posts: 181087

Торрент-статистика

Post 02-Mar-2015 22:34

[Quote]

Интераура
Нейронастрои
- Автор: Интераура
Жанр: Психоактивная аудиопрограмма
Продолжительность: 00:39:02
Формат (аудиокодек): FLAC
Описание:
Нейронастрой – это звуковая дорожка с позитивными утверждениями, формирующими положительную установку, необходимую для развития нужных качеств и достижения целей. Регулярное применение нейронастроев помогает человеку изменить свою жизнь к лучшему, достичь выдающихся результатов в саморазвитии и полностью раскрыть внутренний потенциал. Разработка технологии нейронастроев заняла более 2 лет. Нейронастрои создаются на основе уникальной схемы нейроволновой стимуляции, которая позволяет сделать открытые внушения значительно эффективнее скрытых. В процессе прослушивания нейронастроев вы сможете отчетливо слышать голос и осознавать всю внушаемую информацию. При этом эффективность воздействия будет значительно выше, чем от прослушивания гипнотических программ и других сессий, основанных на закодированных внушениях. В процессе использования нейронастроев вы почувствуете изменения уже после нескольких сеансов.

Содержание:

Грамотная речь
В результате применения нейронастроя "Грамотная речь" достигается высокий уровень правильности произношения слов, корректности построения сложных предложений, появляется стимул к грамотному выстраиванию диалога с любым собеседником и желание совершенствовать свои речевые навыки. Регулярное использование нейронастроя даст вам возможность говорить грамотно и свободно.
Здоровье
Настрой "Здоровье" постепенно внедряет установку на поддержание здорового образа жизни, повышение тонуса, сохранение молодости и самоисцеление. В результате регулярного применения настроя "Здоровье" повышается физическая и моральная выносливость, мобилизуются резервы и задействуется потенциал ваших внутренних сил с целью оздоровления и самоисцеления всего организма.
Интеллект
Нейронастрой "Интеллект" способствует форсированному развитию интеллектуальных способностей, постепенному улучшению памяти и сообразительности. В результате применения нейронастроя "Интеллект" раскрывается весь интеллектуальный потенциал, появляется уверенность в своем интеллектуальном уровне, повышается самооценка, улучшается внимательность, логика и скорость мысли.
Интуиция
Настрой "Интуиция" способствует постепенной активации вашего внутреннего потенциала интуитивного восприятия окружающего мира. При регулярном применении настроя "Интуиция" развивается способность к предугадыванию исхода различных событий, распознаванию намерений собеседника, повышается уровень проницательности и доверия к своему шестому чувству.
Концентрация внимания
В результате регулярного использования нейронастроя "Концентрация внимания" вы научитесь обрабатывать большое количество информации за минимальное время, процесс обработки информации будет проходить легко и спокойно, вы будете ощущать при этом эмоциональную стабильность и целенаправленно выполнять свою задачу, самостоятельно контролируя все этапы ее реализации.
Лидер
Нейронастрой "Лидер" способствует развитию харизмы и качеств присущих истинному лидеру, способному грамотно ставить цели, вести за собой любую команду и быть признаным в любом коллективе. В результате регулярного применения настроя "Лидер" повышается уверенность, решительность, склонность к выстраиванию эффективного общения и другие навыки успешного управленца.
Мой мир заботится обо мне
Нейронастрой "Мой мир заботится обо мне" эффективно формирует позитивное восприятие окружающего мира. При регулярном применении настроя вы начнете видеть все происходящее в позитивных красках, жизнь в ваших глазах станет ярче и приятнее. В результате мир откроет перед вами новые возможности, изменяя вашу жизнь к лучшему, заботясь о вас и удивляя положительными событиями.
Самооценка
Основной целью нейронастроя "Самооценка" является формирование адекватного, положительного отношения к себе, своим поступками и достижениям. При регулярном применении настроя развивается ощущение собственной значимости, конструктивное отношение к критике и комплиментам. Настрой "Самооценка" возвращает чувство собственного достоинства на оптимальный уровень.
Сексуальный магнетизм (мужская версия)
Настрой "Сексуальный магнетизм" способствует развитию мужественности, уверенности в себе, сексуальности и привлекательности. В результате регулярного применения настроя "Сексуальный магнетизм" женщины увидят в вас достойного мужчину, способного быть поддержкой и опорой, обладающего высоким уровнем эмоциональной стабильности и вызывающим уважение у окружающих.
Социальная активность
Настрой "Социальная активность" способствует развитию навыков эффективного общения, легкой и быстрой адаптации в любом коллективе. В процессе применения нейронастроя повышается коммуникабельность, уровень самообладания и эффективность публичных выступлений. В итоге вы сможете вести себя легко и раскрепощенно, наслаждаясь процессом общения с любым собеседником.
Уверенность (мужская версия)
Нейронастрой "Уверенность" способствует достижению бескомпромиссной уверенности в собственных силах и возможностях. В процессе применения настроя возрастет настойчивость, решительность, инициативность, уровень уважения окружающих и популярность у противоположного пола, появится стремление к самореализации и успешному достижению всех поставленных перед собой целей.
Успех
Настрой "Успех" способствует достижению выдающихся результатов в делах и любых начинаниях. При регулярном использовании нейронастроя снижается склонность к лени и пассивному времяпровождению, повышается уровень активности, собранности, целеустремленности и упорства. В итоге применения настроя "Успех" вы станете стратегом, использующим все возможности для реализации планов.

Инструкция по применению нейронастроев

1. Примите комфортное положение.
2. Начните воспроизведение нейронастроя, нажав кнопку "Play".
3. В процессе прослушивания описания настроя установите оптимальный уровень громкости. Максимальный эффект достигается в условиях приятной громкости выше среднего уровня. Если уровень громкости сильно завышен и не располагает к приятному прослушиванию, эффект будет незначительно снижен.
4. Если вы прослушиваете нейронастрой в режиме аутотренинга (формат mp3, flac), громкость не окажет влияния на эффект. Нейроволновая стимуляция, используемая в нейронастроях, сохраняет свои свойства только в формате wav.
5. В процессе прослушивания сеанса важно концентрироваться на голосе, пока не прозвучит фраза: "Закройте глаза и мысленно зафиксируйте установки".
6. Обязательно прослушайте сеанс до завершающей фразы: "Закрываем сеанс".
7. Применяйте нейронастрой два раза в день с интервалом более шести часов. Сила внушения очень велика, поэтому не следует пренебрегать рекомендациями.
8. Не стоит постоянно ожидать эффекта. Позвольте своему подсознанию провести необходимую работу и совсем скоро вы обнаружите, что внушение работает.
9. Используйте настрой регулярно более двух недель до достижения желаемого результата. При нерегулярном применении эффект проявляется дольше.
10. Нейронастрои можно применять в комплексе с гипнотическими программами и аудиосессиями Интераура. Это повышает эффективность курса.

Медиа Инфо

Общее
Полное имя : E:\Слушать\Интераура - Нейронастрои (2014)\Грамотная речь.flac
Формат : FLAC
Формат/Информация : Free Lossless Audio Codec
Размер файла : 16,5 Мбайт
Продолжительность : 3 м. 15 с.
Режим общего битрейта : Переменный
Общий поток : 709 Кбит/сек
Аудио
Формат : FLAC
Формат/Информация : Free Lossless Audio Codec
Продолжительность : 3 м. 15 с.
Вид битрейта : Переменный
Битрейт : 709 Кбит/сек
Каналы : 2 канала
Частота : 44,1 КГц
Битовая глубина : 16 бит
Размер потока : 16,5 Мбайт (100%)
Библиотека кодирования : libFLAC 1.3.0 (UTC 2013-05-26)
Общее
Полное имя : E:\Слушать\Интераура - Нейронастрои (2014)\Здоровье.flac
Формат : FLAC
Формат/Информация : Free Lossless Audio Codec
Размер файла : 17,1 Мбайт
Продолжительность : 3 м. 15 с.
Режим общего битрейта : Переменный
Общий поток : 734 Кбит/сек
Аудио
Формат : FLAC
Формат/Информация : Free Lossless Audio Codec
Продолжительность : 3 м. 15 с.
Вид битрейта : Переменный
Битрейт : 734 Кбит/сек
Каналы : 2 канала
Частота : 44,1 КГц
Битовая глубина : 16 бит
Размер потока : 17,1 Мбайт (100%)
Библиотека кодирования : libFLAC 1.3.0 (UTC 2013-05-26)
Общее
Полное имя : E:\Слушать\Интераура - Нейронастрои (2014)\Интеллект.flac
Формат : FLAC
Формат/Информация : Free Lossless Audio Codec
Размер файла : 16,6 Мбайт
Продолжительность : 3 м. 15 с.
Режим общего битрейта : Переменный
Общий поток : 713 Кбит/сек
Аудио
Формат : FLAC
Формат/Информация : Free Lossless Audio Codec
Продолжительность : 3 м. 15 с.
Вид битрейта : Переменный
Битрейт : 713 Кбит/сек
Каналы : 2 канала
Частота : 44,1 КГц
Битовая глубина : 16 бит
Размер потока : 16,6 Мбайт (100%)
Библиотека кодирования : libFLAC 1.3.0 (UTC 2013-05-26)
Общее
Полное имя : E:\Слушать\Интераура - Нейронастрои (2014)\Интуиция.flac
Формат : FLAC
Формат/Информация : Free Lossless Audio Codec
Размер файла : 17,0 Мбайт
Продолжительность : 3 м. 15 с.
Режим общего битрейта : Переменный
Общий поток : 729 Кбит/сек
Аудио
Формат : FLAC
Формат/Информация : Free Lossless Audio Codec
Продолжительность : 3 м. 15 с.
Вид битрейта : Переменный
Битрейт : 729 Кбит/сек
Каналы : 2 канала
Частота : 44,1 КГц
Битовая глубина : 16 бит
Размер потока : 17,0 Мбайт (100%)
Библиотека кодирования : libFLAC 1.3.0 (UTC 2013-05-26)
Общее
Полное имя : E:\Слушать\Интераура - Нейронастрои (2014)\Концентрация внимания.flac
Формат : FLAC
Формат/Информация : Free Lossless Audio Codec
Размер файла : 17,1 Мбайт
Продолжительность : 3 м. 15 с.
Режим общего битрейта : Переменный
Общий поток : 737 Кбит/сек
Аудио
Формат : FLAC
Формат/Информация : Free Lossless Audio Codec
Продолжительность : 3 м. 15 с.
Вид битрейта : Переменный
Битрейт : 737 Кбит/сек
Каналы : 2 канала
Частота : 44,1 КГц
Битовая глубина : 16 бит
Размер потока : 17,1 Мбайт (100%)
Библиотека кодирования : libFLAC 1.3.0 (UTC 2013-05-26)
Общее
Полное имя : E:\Слушать\Интераура - Нейронастрои (2014)\Лидер.flac
Формат : FLAC
Формат/Информация : Free Lossless Audio Codec
Размер файла : 17,3 Мбайт
Продолжительность : 3 м. 15 с.
Режим общего битрейта : Переменный
Общий поток : 746 Кбит/сек
Аудио
Формат : FLAC
Формат/Информация : Free Lossless Audio Codec
Продолжительность : 3 м. 15 с.
Вид битрейта : Переменный
Битрейт : 746 Кбит/сек
Каналы : 2 канала
Частота : 44,1 КГц
Битовая глубина : 16 бит
Размер потока : 17,3 Мбайт (100%)
Библиотека кодирования : libFLAC 1.3.0 (UTC 2013-05-26)
Общее
Полное имя : E:\Слушать\Интераура - Нейронастрои (2014)\Мой мир заботится обо мне.flac
Формат : FLAC
Формат/Информация : Free Lossless Audio Codec
Размер файла : 17,1 Мбайт
Продолжительность : 3 м. 15 с.
Режим общего битрейта : Переменный
Общий поток : 737 Кбит/сек
Аудио
Формат : FLAC
Формат/Информация : Free Lossless Audio Codec
Продолжительность : 3 м. 15 с.
Вид битрейта : Переменный
Битрейт : 737 Кбит/сек
Каналы : 2 канала
Частота : 44,1 КГц
Битовая глубина : 16 бит
Размер потока : 17,1 Мбайт (100%)
Библиотека кодирования : libFLAC 1.3.0 (UTC 2013-05-26)
Общее
Полное имя : E:\Слушать\Интераура - Нейронастрои (2014)\Самооценка.flac
Формат : FLAC
Формат/Информация : Free Lossless Audio Codec
Размер файла : 17,0 Мбайт
Продолжительность : 3 м. 15 с.
Режим общего битрейта : Переменный
Общий поток : 729 Кбит/сек
Аудио
Формат : FLAC
Формат/Информация : Free Lossless Audio Codec
Продолжительность : 3 м. 15 с.
Вид битрейта : Переменный
Битрейт : 729 Кбит/сек
Каналы : 2 канала
Частота : 44,1 КГц
Битовая глубина : 16 бит
Размер потока : 17,0 Мбайт (100%)
Библиотека кодирования : libFLAC 1.3.0 (UTC 2013-05-26)
Общее
Полное имя : E:\Слушать\Интераура - Нейронастрои (2014)\Сексуальный магнетизм (мужская версия).flac
Формат : FLAC
Формат/Информация : Free Lossless Audio Codec
Размер файла : 16,8 Мбайт
Продолжительность : 3 м. 15 с.
Режим общего битрейта : Переменный
Общий поток : 724 Кбит/сек
Аудио
Формат : FLAC
Формат/Информация : Free Lossless Audio Codec
Продолжительность : 3 м. 15 с.
Вид битрейта : Переменный
Битрейт : 724 Кбит/сек
Каналы : 2 канала
Частота : 44,1 КГц
Битовая глубина : 16 бит
Размер потока : 16,8 Мбайт (100%)
Библиотека кодирования : libFLAC 1.3.0 (UTC 2013-05-26)
Общее
Полное имя : E:\Слушать\Интераура - Нейронастрои (2014)\Социальная активность.flac
Формат : FLAC
Формат/Информация : Free Lossless Audio Codec
Размер файла : 16,5 Мбайт
Продолжительность : 3 м. 15 с.
Режим общего битрейта : Переменный
Общий поток : 708 Кбит/сек
Аудио
Формат : FLAC
Формат/Информация : Free Lossless Audio Codec
Продолжительность : 3 м. 15 с.
Вид битрейта : Переменный
Битрейт : 708 Кбит/сек
Каналы : 2 канала
Частота : 44,1 КГц
Битовая глубина : 16 бит
Размер потока : 16,5 Мбайт (100%)
Библиотека кодирования : libFLAC 1.3.0 (UTC 2013-05-26)
Общее
Полное имя : E:\Слушать\Интераура - Нейронастрои (2014)\Уверенность (мужская версия).flac
Формат : FLAC
Формат/Информация : Free Lossless Audio Codec
Размер файла : 17,2 Мбайт
Продолжительность : 3 м. 15 с.
Режим общего битрейта : Переменный
Общий поток : 740 Кбит/сек
Аудио
Формат : FLAC
Формат/Информация : Free Lossless Audio Codec
Продолжительность : 3 м. 15 с.
Вид битрейта : Переменный
Битрейт : 740 Кбит/сек
Каналы : 2 канала
Частота : 44,1 КГц
Битовая глубина : 16 бит
Размер потока : 17,2 Мбайт (100%)
Библиотека кодирования : libFLAC 1.3.0 (UTC 2013-05-26)
Общее
Полное имя : E:\Слушать\Интераура - Нейронастрои (2014)\Успех.flac
Формат : FLAC
Формат/Информация : Free Lossless Audio Codec
Размер файла : 16,5 Мбайт
Продолжительность : 3 м. 15 с.
Режим общего битрейта : Переменный
Общий поток : 711 Кбит/сек
Аудио
Формат : FLAC
Формат/Информация : Free Lossless Audio Codec
Продолжительность : 3 м. 15 с.
Вид битрейта : Переменный
Битрейт : 711 Кбит/сек
Каналы : 2 канала
Частота : 44,1 КГц
Битовая глубина : 16 бит
Размер потока : 16,5 Мбайт (100%)
Библиотека кодирования : libFLAC 1.3.0 (UTC 2013-05-26)
Other forum [Profile] [PM]
Similar theme
Forum Topic Author Torrent Replies Last Post
./templates/default/images/folder_dl.gif Разное Антонов Олег Борисович - Олег Борисович Антонов - Культура, Интернет и будущее [2014, PDF] OlegAlm
1 | 0

1 | 4621

4

2014-03-26 10:57
Dracula Latest
Display posts from previous:    
Reply to topic

The time now is: Today 12:31

All times are GMT + 3 Hours



You cannot post new topics in this forum
You cannot reply to topics in this forum
You cannot edit your posts in this forum
You cannot delete your posts in this forum
You cannot vote in polls in this forum
You cannot attach files in this forum
You cannot download files in this forum