Today is a free download without charge Download

Я прихожу с дождём / I Come with the Rain [ Чан Ань Хунг (2009) триллер, драма, BDRip 720p ]

Reply to topic
 
Author
Message

Delia ®

Gender:

Longevity: 10 years

Posts: 1821

Торрент-статистика

Post 22-Mar-2012 21:53

[Quote]

Я прихожу с дождём / I Come with the Rain«Can you find the path to Redemption ?»--
Год выпуска: 2009
Страна: Франция , Великобритания , Испания , Гонконг , Ирландия
Жанр: триллер, драма
Продолжительность: 01:54:25
Перевод: Профессиональный (многоголосый закадровый)
Субтитры: Russian ,English (srt)
Режиссер: Чан Ань Хунг
Сценарий: Чан Ань Хунг
Продюсер: Жан-Пьер Маруа, Фернандо Суличин, Жан Казе, ...
Оператор: Хуан Руис Анчия
Композитор: Густаво Сантаолайя
Художник: Бенуа Бару, Деви Тируванзям, Джуди Шресбери
Монтаж: Марио Баттистел- В ролях: Джош Хартнетт (Josh Hartnett), Чан Ну Йен Кхе (Tran Nu Yen-Khe), Ли Бён Хон (Byung-hun Lee), Такуя Кимура (Takuya Kimura), Шон Юе (Shawn Yue), Элиас Котеас (Elias Koteas), Эусебио Понсела (Eusebio Poncela), Симон Андреу (Simon Andreu), Теа Аквино (Thea Aquino), Бо-Юань Чан (Bo-yuan Chan), Це-хо Чоу (Tse-ho Chow), Русс Кингстон (Russ Kingston), Джо Кук (Jo Kuk), Сэм Ли (Sam Lee), Альваро Лонгария (Alvaro Longaria), Карл Нг (Carl Ng), Бенито Сагредо (Benito Sagredo), Лорея Солабаррьета (Lorea Solabarrieta), Дэвид Тэнг (David Tang), Jacob J Ziacan
Описание: Бывший полицейский Клайн, выполняя заказ загадочного миллиардера, отправляется на Филиппины и в Гонконг, чтобы найти сына богача — Шитао. Юноша — целитель. Он снимает чужую боль, перенося ее на себя. Его путь исцелений других — путь личных страданий. И для Клайна дорога к Шитао — тоже путь страдания.Детектив сам нуждается в исцелении: охота за серийным убийцей Хасфордом открыла ему мир смешения уродливого и прекрасного, в котором боль объявляется воплощением красоты. И он отправляется в путешествие на Восток, мистическое путешествие, уподобляясь в этом таким героям восточного эпоса, как Царь Обезьян. Он шествует словно эпический персонаж, ни зло, ни красота, царящие вокруг, не касаются странника. Он ищет Шитао, ищет свою Мудрость.-- ----Качество: BDRip
Формат: MKV
Видео кодек: AVC
Аудио кодеk: AC3
Видео: 1280x544 (2.35:1), 23.976 fps, AVC, 4 319 Kbps
Аудио: Аудио #1: AC3, 384 Kbps, 48.0 KHz, 6 ch RUS MVO
Аудио #2: AC3, 384 Kbps, 48.0 KHz, 6 ch UKR MVO
Аудио #3: AC3, 384 Kbps, 48.0 KHz, 6 ch ENG Dub

МедиаИнфо

Код:
General
Complete name                    : I Come with the Rain (2009)BDRip 720p-F.HD.mkv
Format                           : Matroska
File size                        : 4.37 GiB
Duration                         : 1h 54mn
Overall bit rate                 : 5 469 Kbps
Encoded date                     : UTC 2012-03-22 17:23:16
Writing application              : mkvmerge v5.4.0 ('Piper') built on Mar 10 2012 13:34:39
Writing library                  : libebml v1.2.3 + libmatroska v1.3.0
Video
ID                               : 1
Format                           : AVC
Format/Info                      : Advanced Video Codec
Format profile                   : [email protected]
Format settings, CABAC           : Yes
Format settings, ReFrames        : 10 frames
Muxing mode                      : Container pro[email protected]
Codec ID                         : V_MPEG4/ISO/AVC
Duration                         : 1h 54mn
Bit rate                         : 4 319 Kbps
Width                            : 1 280 pixels
Height                           : 544 pixels
Display aspect ratio             : 2.35:1
Frame rate                       : 23.976 fps
Color space                      : YUV
Chroma subsampling               : 4:2:0
Bit depth                        : 8 bits
Scan type                        : Progressive
Bits/(Pixel*Frame)               : 0.259
Stream size                      : 3.36 GiB (77%)
Title                            : FREEISLAND
Writing library                  : x264 core 122 r2184 5c85e0a
Encoding settings                : cabac=1 / ref=10 / deblock=1:-3:-3 / analyse=0x3:0x113 / me=umh / subme=10 / psy=1 / psy_rd=1.10:0.15 / mixed_ref=1 / me_range=32 / chroma_me=1 / trellis=2 / 8x8dct=1 / cqm=0 / deadzone=21,11 / fast_pskip=0 / chroma_qp_offset=-3 / threads=6 / sliced_threads=0 / nr=0 / decimate=1 / interlaced=0 / bluray_compat=0 / constrained_intra=0 / bframes=10 / b_pyramid=2 / b_adapt=2 / b_bias=0 / direct=3 / weightb=1 / open_gop=0 / weightp=2 / keyint=230 / keyint_min=22 / scenecut=40 / intra_refresh=0 / rc=2pass / mbtree=0 / bitrate=4319 / ratetol=1.0 / qcomp=0.80 / qpmin=0 / qpmax=69 / qpstep=4 / cplxblur=20.0 / qblur=0.5 / ip_ratio=1.40 / pb_ratio=1.20 / aq=2:0.80
Color primaries                  : BT.709-5, BT.1361, IEC 61966-2-4, SMPTE RP177
Transfer characteristics         : BT.709-5, BT.1361
Matrix coefficients              : BT.709-5, BT.1361, IEC 61966-2-4 709, SMPTE RP177
Audio #1
ID                               : 2
Format                           : AC-3
Format/Info                      : Audio Coding 3
Mode extension                   : CM (complete main)
Codec ID                         : A_AC3
Duration                         : 1h 54mn
Bit rate mode                    : Constant
Bit rate                         : 384 Kbps
Channel(s)                       : 6 channels
Channel positions                : Front: L C R, Side: L R, LFE
Sampling rate                    : 48.0 KHz
Bit depth                        : 16 bits
Stream size                      : 314 MiB (7%)
Language                         : Russian
Audio #2
ID                               : 3
Format                           : AC-3
Format/Info                      : Audio Coding 3
Mode extension                   : CM (complete main)
Codec ID                         : A_AC3
Duration                         : 1h 54mn
Bit rate mode                    : Constant
Bit rate                         : 384 Kbps
Channel(s)                       : 6 channels
Channel positions                : Front: L C R, Side: L R, LFE
Sampling rate                    : 48.0 KHz
Bit depth                        : 16 bits
Stream size                      : 314 MiB (7%)
Language                         : Ukrainian
Audio #3
ID                               : 4
Format                           : AC-3
Format/Info                      : Audio Coding 3
Mode extension                   : CM (complete main)
Codec ID                         : A_AC3
Duration                         : 1h 54mn
Bit rate mode                    : Constant
Bit rate                         : 384 Kbps
Channel(s)                       : 6 channels
Channel positions                : Front: L C R, Side: L R, LFE
Sampling rate                    : 48.0 KHz
Bit depth                        : 16 bits
Stream size                      : 314 MiB (7%)
Text #1
ID                               : 5
Format                           : UTF-8
Codec ID                         : S_TEXT/UTF8
Codec ID/Info                    : UTF-8 Plain Text
Language                         : Russian
Text #2
ID                               : 6
Format                           : UTF-8
Codec ID                         : S_TEXT/UTF8
Codec ID/Info                    : UTF-8 Plain Text
Menu
00:00:00.000                     : en:Chapter 01
00:08:57.327                     : en:Chapter 02
00:16:40.666                     : en:Chapter 03
00:25:19.851                     : en:Chapter 04
00:33:56.826                     : en:Chapter 05
00:41:44.793                     : en:Chapter 06
00:51:41.806                     : en:Chapter 07
01:02:23.905                     : en:Chapter 08
01:09:06.140                     : en:Chapter 09
01:18:08.390                     : en:Chapter 10
01:31:25.020                     : en:Chapter 11
01:41:44.765                     : en:Chapter 12
01:54:24.148                     : en:Chapter 13


Скриншоты

     
     

_________________
Человек – это канат, натянутый между животным и сверхчеловеком, – канат над пропастью.
В человеке ценно то, что он мост, а не цель. Фридрих Ницше
Other forum [Profile] [PM]

Nugeiro

Gender:

Longevity: 10 years

Posts: 1981

Location: Украина, Шостка

Торрент-статистика

Post 23-Mar-2012 00:20 (after 2 hours 27 minutes)

[Quote]

Delia, спасибо.

_________________
Other forum [Profile] [PM]

Shabelia

Longevity: 9 years 3 months

Posts: 43

Торрент-статистика

Post 23-Mar-2012 10:12 (after 9 hours)

[Quote]

Delia, сПАСИБО ЗА КАЧЕСТВЕННОЕ КИНО!!!
Other forum [Profile] [PM]
Display posts from previous:    
Reply to topic

The time now is: Today 06:46

All times are GMT + 3 Hours



You cannot post new topics in this forum
You cannot reply to topics in this forum
You cannot edit your posts in this forum
You cannot delete your posts in this forum
You cannot vote in polls in this forum
You cannot attach files in this forum
You cannot download files in this forum