Сегодня идет свободное скачивание без начисления Download

Сокровище нации. Диология / National Treasure. Dialogy

Ответить на тему
 
Автор
Сообщение

centrashi ®

Пол:

Стаж: 6 лет 10 месяцев

Сообщений: 52

Откуда: Украина

Торрент-статистика

Пост 22-Мар-2012 17:44

[Цитировать]

Сокровище нации. Диология / National Treasure. Dilogy

Сокровище нации

Сокровище нации / National Treasure
Русское название:Сокровище нации
Оригинальное название: National Treasure
Год выпуска: 2004
Режиссер: Джон Тёртелтауб
В ролях: Николас Кейдж, Дайан Крюгер, Джастин Барта, Шон Бин, Джон Войт, Харви Кейтель, Кристофер Пламмер, Дэвид Дайан Фишер, Стюарт Финлэй-МакЛеннан, Олег Тактаров
Страна: США
Продолжительность: 131 мин. / 02:11
Продюссер:Джерри Брукхаймер, Джон Тёртелтауб, Орен Авив
Сценарий: Джим Кауф, Кормак Уибберли, Мэриэнн Уибберли
Премьера в мире: 8 ноября 2004
Жанр: боевик, триллер, детектив, приключения
Перевод: Профессиональный(дублированный)
Бюджет: $100 000 000
Описание: ПСовременные охотники за сокровищами во главе с Беном Франклином Гейтсом узнают старинную легенду о сокровище, спрятанном еще отцами-основателями американского государства Джорджем Вашингтоном, Бенджамином Франклином и Томасом Джефферсоном.
Узнать тайну клада можно с помощью Декларации Независимости США, в которой зашифрована разгадка. Но помимо разгадывания изощренной головоломки, нашим героям предстоит сразиться с любителями легкой наживы, жаждущим погреть руки на достоянии республики…


Качество: BDRip
Формат: MKV
Видео кодек: h.264
Аудио кодек: AC3
Видео: AVC at 2400 Кбит/сек 1024 x 426 (2.404) at 23.976 fps
Аудио: AC-3 at 448 Кбит/сек 6 каналов, 48,0 КГц
Audio #0: AC-3 at 448 Кбит/сек 6 каналов, 48,0 КГц ru
Audio #1 AC-3 at 448 Кбит/сек 6 каналов, 48,0 КГц en

MediaInfo

Код:
Полное имя                       : D:\скчаное с торрента\Сокровище нации.2004-2007\Sokrovische.nacii.2004.DUAL.BDRip-AVC.h264.AC3.mkv
Формат                           : Matroska
Версия формата                   : Version 2
Размер файла                     : 3,01 Гбайт
Продолжительность                : 2 ч. 11 м.
Общий поток                      : 3288 Кбит/сек
Видео
Идентификатор                    : 1
Формат                           : AVC
Формат/Информация                : Advanced Video Codec
Профиль формата                  : [email protected]
Параметр CABAC формата           : Да
Параметр ReFrames формата        : 8 кадров
Идентификатор кодека             : V_MPEG4/ISO/AVC
Продолжительность                : 2 ч. 11 м.
Битрейт                          : 2400 Кбит/сек
Ширина                           : 1024 пикселя
Высота                           : 426 пикселей
Соотношение сторон               : 2,40:1
Частота кадров                   : 23,976 кадра/сек
Цветовое пространство            : YUV
Субдискретизация насыщенности    : 4:2:0
Битовая глубина                  : 8 бит
Тип развёртки                    : Прогрессивная
Бит/(Пиксели*Кадры)              : 0.229
Размер потока                    : 2,13 Гбайт (71%)
Библиотека кодирования           : x264 core 115 r1995 c1e60b9
Настройки программы              : cabac=1 / ref=8 / deblock=1:-2:-3 / analyse=0x3:0x133 / me=umh / subme=10 / psy=1 / psy_rd=1.00:0.10 / mixed_ref=1 / me_range=32 / chroma_me=1 / trellis=2 / 8x8dct=1 / cqm=0 / deadzone=21,11 / fast_pskip=0 / chroma_qp_offset=2 / threads=3 / sliced_threads=0 / nr=0 / decimate=1 / interlaced=0 / bluray_compat=0 / constrained_intra=0 / bframes=5 / b_pyramid=2 / b_adapt=2 / b_bias=0 / direct=3 / weightb=1 / open_gop=0 / weightp=2 / keyint=250 / keyint_min=23 / scenecut=40 / intra_refresh=0 / rc=2pass / mbtree=0 / bitrate=2400 / ratetol=1.0 / qcomp=0.60 / qpmin=10 / qpmax=51 / qpstep=4 / cplxblur=20.0 / qblur=0.5 / ip_ratio=1.40 / pb_ratio=1.30 / aq=2:1.00
Язык                             : English
Аудио #1
Идентификатор                    : 2
Формат                           : AC-3
Формат/Информация                : Audio Coding 3
Расширение режима                : CM (complete main)
Идентификатор кодека             : A_AC3
Продолжительность                : 2 ч. 11 м.
Вид битрейта                     : Постоянный
Битрейт                          : 448 Кбит/сек
Каналы                           : 6 каналов
Расположение каналов             : Front: L C R, Side: L R, LFE
Частота                          : 48,0 КГц
Битовая глубина                  : 16 бит
Метод сжатия                     : С потерями
Размер потока                    : 420 Мбайт (14%)
Заголовок                        : Дубляж
Язык                             : Russian
Аудио #2
Идентификатор                    : 3
Формат                           : AC-3
Формат/Информация                : Audio Coding 3
Расширение режима                : CM (complete main)
Идентификатор кодека             : A_AC3
Продолжительность                : 2 ч. 11 м.
Вид битрейта                     : Постоянный
Битрейт                          : 448 Кбит/сек
Каналы                           : 6 каналов
Расположение каналов             : Front: L C R, Side: L R, LFE
Частота                          : 48,0 КГц
Битовая глубина                  : 16 бит
Метод сжатия                     : С потерями
Размер потока                    : 420 Мбайт (14%)
Заголовок                        : Английский
Язык                             : English
Текст #1
Идентификатор                    : 4
Формат                           : UTF-8
Идентификатор кодека             : S_TEXT/UTF8
Идентификатор кодека/Информация  : UTF-8 Plain Text
Заголовок                        : Русские
Язык                             : Russian
Текст #2
Идентификатор                    : 5
Формат                           : UTF-8
Идентификатор кодека             : S_TEXT/UTF8
Идентификатор кодека/Информация  : UTF-8 Plain Text
Заголовок                        : Английские
Язык                             : English
Текст #3
Идентификатор                    : 6
Формат                           : UTF-8
Идентификатор кодека             : S_TEXT/UTF8
Идентификатор кодека/Информация  : UTF-8 Plain Text
Заголовок                        : Украинские
Язык                             : Ukrainian
Меню
00:00:00.000                     : :Chapter 01
00:06:36.229                     : :Chapter 02
00:22:20.338                     : :Chapter 03
00:28:49.268                     : :Chapter 04
00:31:15.290                     : :Chapter 05
00:35:44.516                     : :Chapter 06
00:45:52.666                     : :Chapter 07
00:54:27.973                     : :Chapter 08
01:01:07.705                     : :Chapter 09
01:07:02.685                     : :Chapter 10
01:16:54.609                     : :Chapter 11
01:24:06.457                     : :Chapter 12
01:28:21.671                     : :Chapter 13
01:34:20.821                     : :Chapter 14
01:38:31.988                     : :Chapter 15
01:49:42.576                     : :Chapter 16
01:53:26.381                     : :Chapter 17
01:57:22.452                     : :Chapter 18
02:01:43.379                     : :Chapter 19
02:11:04.231                     : :Chapter 20

Скриншоты

                   

Сокровище нации. Книга тайн

Сокровище нации. Книга тайн / National Treasure: Book of Secrets
Русское название:Сокровище нации. Книга тайн
Оригинальное название: National Treasure: Book of Secrets
Год выпуска: 2007
Режиссер: Джон Тёртелтауб
В ролях: Николас Кейдж, Джастин Барта, Дайан Крюгер, Джон Войт, Хелен Миррен, Эд Харрис, Харви Кейтель, Брюс Гринвуд, Ти Баррелл, Майкл Мейзе
Страна: США
Продолжительность: 124 мин. / 02:04
Продюссер: Джерри Брукхаймер, Джон Тёртелтауб, Орен Авив
Сценарий: Мэриэнн Уибберли, Кормак Уибберли, Грегори Пуарье
Премьера в мире: 13 декабря 2007
Жанр: боевик, триллер, детектив, приключения
Перевод: Профессиональный(дублированный)
Бюджет: $130 000 000
Описание: Охотник за сокровищами Бен Гейтс, вооружившись поддержкой любимой женщины, верного друга Райли, а также своих родителей, отправляется на поиски затерянного золотого города. Только пройдя сквозь череду невероятных и увлекательных приключений, Бену удастся очистить имя своего предка от обвинений в убийстве Авраама Линкольна. Но не все так просто — параллельные поиски города ведет и некий Митч Уилкинсон, готовый на все ради достижения цели.


Качество: BDRip
Формат: MKV
Видео кодек: h.264
Аудио кодек: AC3
Видео: AVC at 3100 Кбит/сек 1024 x 426 (2.404) at 23.976 fps
Аудио: AC-3 at 448 Кбит/сек 6 каналов, 48,0 КГц
Audio #0: AC-3 at 448 Кбит/сек 6 каналов, 48,0 КГц ru
Audio #1: AC-3 at 448 Кбит/сек 6 каналов, 48,0 КГц en

MediaInfo

Код:
Полное имя                       : D:\скчаное с торрента\Сокровище нации.2004-2007\Sokrovische.nacii.Kniga.Tajn.2007.DUAL.BDRip-AVC.h264.AC3.mkv
Формат                           : Matroska
Версия формата                   : Version 2
Размер файла                     : 3,48 Гбайт
Продолжительность                : 2 ч. 4 м.
Общий поток                      : 3996 Кбит/сек
Видео
Идентификатор                    : 1
Формат                           : AVC
Формат/Информация                : Advanced Video Codec
Профиль формата                  : [email protected]
Параметр CABAC формата           : Да
Параметр ReFrames формата        : 8 кадров
Идентификатор кодека             : V_MPEG4/ISO/AVC
Продолжительность                : 2 ч. 4 м.
Битрейт                          : 3100 Кбит/сек
Ширина                           : 1024 пикселя
Высота                           : 426 пикселей
Соотношение сторон               : 2,40:1
Частота кадров                   : 23,976 кадра/сек
Цветовое пространство            : YUV
Субдискретизация насыщенности    : 4:2:0
Битовая глубина                  : 8 бит
Тип развёртки                    : Прогрессивная
Бит/(Пиксели*Кадры)              : 0.296
Размер потока                    : 2,63 Гбайт (76%)
Библиотека кодирования           : x264 core 115 r1995 c1e60b9
Настройки программы              : cabac=1 / ref=8 / deblock=1:-2:-3 / analyse=0x3:0x133 / me=umh / subme=10 / psy=1 / psy_rd=1.00:0.10 / mixed_ref=1 / me_range=32 / chroma_me=1 / trellis=2 / 8x8dct=1 / cqm=0 / deadzone=21,11 / fast_pskip=0 / chroma_qp_offset=2 / threads=3 / sliced_threads=0 / nr=0 / decimate=1 / interlaced=0 / bluray_compat=0 / constrained_intra=0 / bframes=5 / b_pyramid=2 / b_adapt=2 / b_bias=0 / direct=3 / weightb=1 / open_gop=0 / weightp=2 / keyint=250 / keyint_min=23 / scenecut=40 / intra_refresh=0 / rc=2pass / mbtree=0 / bitrate=3100 / ratetol=1.0 / qcomp=0.60 / qpmin=10 / qpmax=51 / qpstep=4 / cplxblur=20.0 / qblur=0.5 / ip_ratio=1.40 / pb_ratio=1.30 / aq=2:1.00
Язык                             : English
Аудио #1
Идентификатор                    : 2
Формат                           : AC-3
Формат/Информация                : Audio Coding 3
Расширение режима                : CM (complete main)
Идентификатор кодека             : A_AC3
Продолжительность                : 2 ч. 4 м.
Вид битрейта                     : Постоянный
Битрейт                          : 448 Кбит/сек
Каналы                           : 6 каналов
Расположение каналов             : Front: L C R, Side: L R, LFE
Частота                          : 48,0 КГц
Битовая глубина                  : 16 бит
Метод сжатия                     : С потерями
Размер потока                    : 399 Мбайт (11%)
Заголовок                        : Дубляж
Язык                             : Russian
Аудио #2
Идентификатор                    : 3
Формат                           : AC-3
Формат/Информация                : Audio Coding 3
Расширение режима                : CM (complete main)
Идентификатор кодека             : A_AC3
Продолжительность                : 2 ч. 4 м.
Вид битрейта                     : Постоянный
Битрейт                          : 448 Кбит/сек
Каналы                           : 6 каналов
Расположение каналов             : Front: L C R, Side: L R, LFE
Частота                          : 48,0 КГц
Битовая глубина                  : 16 бит
Метод сжатия                     : С потерями
Размер потока                    : 399 Мбайт (11%)
Заголовок                        : Английский
Язык                             : English
Текст #1
Идентификатор                    : 4
Формат                           : UTF-8
Идентификатор кодека             : S_TEXT/UTF8
Идентификатор кодека/Информация  : UTF-8 Plain Text
Заголовок                        : Русские
Язык                             : Russian
Текст #2
Идентификатор                    : 5
Формат                           : UTF-8
Идентификатор кодека             : S_TEXT/UTF8
Идентификатор кодека/Информация  : UTF-8 Plain Text
Заголовок                        : Русские форсированные
Язык                             : Russian
Текст #3
Идентификатор                    : 6
Формат                           : UTF-8
Идентификатор кодека             : S_TEXT/UTF8
Идентификатор кодека/Информация  : UTF-8 Plain Text
Заголовок                        : Украинские
Язык                             : Ukrainian
Текст #4
Идентификатор                    : 7
Формат                           : UTF-8
Идентификатор кодека             : S_TEXT/UTF8
Идентификатор кодека/Информация  : UTF-8 Plain Text
Заголовок                        : Русские форсированные
Язык                             : Ukrainian
Текст #5
Идентификатор                    : 8
Формат                           : UTF-8
Идентификатор кодека             : S_TEXT/UTF8
Идентификатор кодека/Информация  : UTF-8 Plain Text
Заголовок                        : Английские
Язык                             : English
Меню
00:00:00.000                     : :Chapter 01
00:04:59.340                     : :Chapter 02
00:08:27.214                     : :Chapter 03
00:16:55.723                     : :Chapter 04
00:22:01.945                     : :Chapter 05
00:26:03.395                     : :Chapter 06
00:36:47.038                     : :Chapter 07
00:43:02.913                     : :Chapter 08
00:50:14.010                     : :Chapter 09
00:55:27.907                     : :Chapter 10
01:00:01.389                     : :Chapter 11
01:11:22.987                     : :Chapter 12
01:20:14.017                     : :Chapter 13
01:24:42.744                     : :Chapter 14
01:30:41.269                     : :Chapter 15
01:40:07.334                     : :Chapter 16
01:47:17.889                     : :Chapter 17
01:57:20.533                     : :Chapter 18
02:04:32.214                     : :Chapter 19

Скриншоты

                     

_________________
Бороться и искать, найти и не сдваться.
Вне форума [Профиль] [ЛС]
Показать сообщения:    
Ответить на тему

Текущее время: Сегодня 15:24

Часовой пояс: GMT + 3



Вы не можете начинать темы
Вы не можете отвечать на сообщения
Вы не можете редактировать свои сообщения
Вы не можете удалять свои сообщения
Вы не можете голосовать в опросах
Вы не можете прикреплять файлы к сообщениям
Вы не можете скачивать файлы