Сегодня идет свободное скачивание без начисления Download

Назад в будущее. Трилогия / Back to the Future. Trilogy [фантастика, комедия, приключения]

Ответить на тему
 
Автор
Сообщение

centrashi ®

Пол:

Стаж: 6 лет 8 месяцев

Сообщений: 52

Откуда: Украина

Торрент-статистика

Пост 21-Мар-2012 20:12

[Цитировать]

Назад в будущее. Трилогия / Back to the Future. Trilogy

Назад в будущее

Назад в будущее / Back to the Future
Русское название:Назад в будущее
Оригинальное название: Back to the Future
Год выпуска: 1985
Режиссер: Роберт Земекис
В ролях: Майкл Дж. Фокс, Кристофер Ллойд, Лиа Томпсон, Криспин Гловер, Томас Ф. Уилсон, Клодия Уэллс, Марк МакКлюр, Уэнди Джо Спербер, Джордж ДиЧенцо, Фрэнсис Ли МакКейн
Страна: США
Продолжительность: 116 мин. / 01:56
Продюссер: Нил Кэнтон, Боб Гейл, Кэтлин Кеннеди
Сценарий: Роберт Земекис, Боб Гейл
Премьера в мире: 3 июля 1985
Жанр: фантастика, комедия, приключения
Перевод: Профессиональный(дублированный)
Бюджет: $19 000 000
Описание: Подросток Марти с помощью машины времени, сооруженной его другом профессором доком Брауном, попадает из 80-х в далекие 50-е. Там он встречается со своими будущими родителями, еще подростками, и другом-профессором, совсем молодым.


Качество: BDRip
Формат: MKV
Видео кодек: h.264
Аудио кодек: AC3
Видео: AVC at 2318 Кбит/сек 1280 x 692 (1.850) at 23.976 fps
Аудио: AC-3 at 448 Кбит/сек 6 каналов, 48,0 КГц

MediaInfo

Код:
Полное имя                       : D:\скчаное с торрента\Назад в будущее. Трилогия\Назад в будущее..mkv
Формат                           : Matroska
Версия формата                   : Version 2
Размер файла                     : 2,23 Гбайт
Продолжительность                : 1 ч. 56 м.
Режим общего битрейта            : Переменный
Общий поток                      : 2747 Кбит/сек
Видео
Идентификатор                    : 2
Формат                           : AVC
Формат/Информация                : Advanced Video Codec
Профиль формата                  : [email protected]
Параметр CABAC формата           : Да
Параметр ReFrames формата        : 3 кадра
Идентификатор кодека             : V_MPEG4/ISO/AVC
Продолжительность                : 1 ч. 56 м.
Вид битрейта                     : Переменный
Битрейт                          : 2318 Кбит/сек
Максимальный битрейт             : 17,5 Мбит/сек
Ширина                           : 1280 пикселей
Высота                           : 692 пикселя
Соотношение сторон               : 1,850
Частота кадров                   : 23,976 кадра/сек
Цветовое пространство            : YUV
Субдискретизация насыщенности    : 4:2:0
Битовая глубина                  : 8 бит
Тип развёртки                    : Прогрессивная
Бит/(Пиксели*Кадры)              : 0.109
Размер потока                    : 1,82 Гбайт (82%)
Библиотека кодирования           : x264 core 105 r1732 2b04482
Настройки программы              : cabac=1 / ref=1 / deblock=1:0:0 / analyse=0x3:0x3 / me=dia / subme=1 / psy=1 / psy_rd=0.00:0.00 / mixed_ref=0 / me_range=16 / chroma_me=1 / trellis=0 / 8x8dct=1 / cqm=0 / deadzone=21,11 / fast_pskip=1 / chroma_qp_offset=0 / threads=3 / sliced_threads=0 / slices=4 / nr=0 / decimate=1 / interlaced=0 / constrained_intra=0 / bframes=3 / b_pyramid=1 / b_adapt=1 / b_bias=0 / direct=1 / weightb=1 / open_gop=0 / weightp=0 / keyint=24 / keyint_min=1 / scenecut=40 / intra_refresh=0 / rc_lookahead=0 / rc=abr / mbtree=0 / bitrate=2318 / ratetol=1.0 / qcomp=0.60 / qpmin=0 / qpmax=51 / qpstep=4 / vbv_maxrate=17500 / vbv_bufsize=14500 / ip_ratio=1.10 / pb_ratio=1.10 / aq=1:1.00 / nal_hrd=vbr
Аудио
Идентификатор                    : 1
Формат                           : AC-3
Формат/Информация                : Audio Coding 3
Расширение режима                : CM (complete main)
Идентификатор кодека             : A_AC3
Продолжительность                : 1 ч. 56 м.
Вид битрейта                     : Постоянный
Битрейт                          : 448 Кбит/сек
Каналы                           : 6 каналов
Расположение каналов             : Front: L C R, Side: L R, LFE
Частота                          : 48,0 КГц
Битовая глубина                  : 16 бит
Метод сжатия                     : С потерями
Размер потока                    : 372 Мбайт (16%)

Скриншоты

       

Назад в будущее 2

Назад в будущее 2 / Back to the Future Part II
Русское название:Назад в будущее 2
Оригинальное название: Back to the Future Part II
Год выпуска: 1989
Режиссер: Роберт Земекис
В ролях: Майкл Дж. Фокс, Кристофер Ллойд, Лиа Томпсон, Томас Ф. Уилсон, Элизабет Шу, Джеймс Толкан, Джеффри Вайсман, Кэйси Семашко, Билли Зейн, Дж.Дж. Коэн
Страна: США
Продолжительность: 108 мин. / 01:48
Продюссер: Нил Кэнтон, Боб Гейл, Кэтлин Кеннеди
Сценарий: Боб Гейл, Роберт Земекис
Премьера в мире: 20 ноября 1989
Жанр: фантастика, боевик, комедия, приключения, семейный
Перевод: Профессиональный(дублированный)
Бюджет: $40 000 000
Описание: Продолжение фантастической истории о приключениях американского подростка во времени. На этот раз с помощью модернизированной Доком машины времени Марти из 80-х попадает в будущее.
Дети Марти в беде, и их надо выручать. Приходится повозиться со злодеем…


Качество: BDRip
Формат: MKV
Видео кодек: h.264
Аудио кодек: AC3
Видео: AVC at 2521 Кбит/сек 1280 x 692 (1.850) at 23.976 fps
Аудио: AC-3 at 448 Кбит/сек 6 каналов, 48,0 КГц

MediaInfo

Код:
Полное имя                       : D:\скчаное с торрента\Назад в будущее. Трилогия\Назад в будущее 2.mkv
Формат                           : Matroska
Версия формата                   : Version 2
Размер файла                     : 2,23 Гбайт
Продолжительность                : 1 ч. 47 м.
Режим общего битрейта            : Переменный
Общий поток                      : 2954 Кбит/сек
Видео
Идентификатор                    : 2
Формат                           : AVC
Формат/Информация                : Advanced Video Codec
Профиль формата                  : [email protected]
Параметр CABAC формата           : Да
Параметр ReFrames формата        : 3 кадра
Параметр GOP формата             : M=4, N=24
Идентификатор кодека             : V_MPEG4/ISO/AVC
Продолжительность                : 1 ч. 47 м.
Вид битрейта                     : Переменный
Битрейт                          : 2521 Кбит/сек
Максимальный битрейт             : 17,5 Мбит/сек
Ширина                           : 1280 пикселей
Высота                           : 692 пикселя
Соотношение сторон               : 1,850
Частота кадров                   : 23,976 кадра/сек
Цветовое пространство            : YUV
Субдискретизация насыщенности    : 4:2:0
Битовая глубина                  : 8 бит
Тип развёртки                    : Прогрессивная
Бит/(Пиксели*Кадры)              : 0.119
Размер потока                    : 1,85 Гбайт (83%)
Библиотека кодирования           : x264 core 105 r1732 2b04482
Настройки программы              : cabac=1 / ref=1 / deblock=1:0:0 / analyse=0x3:0x3 / me=dia / subme=1 / psy=1 / psy_rd=0.00:0.00 / mixed_ref=0 / me_range=16 / chroma_me=1 / trellis=0 / 8x8dct=1 / cqm=0 / deadzone=21,11 / fast_pskip=1 / chroma_qp_offset=0 / threads=3 / sliced_threads=0 / slices=4 / nr=0 / decimate=1 / interlaced=0 / constrained_intra=0 / bframes=3 / b_pyramid=1 / b_adapt=1 / b_bias=0 / direct=1 / weightb=1 / open_gop=0 / weightp=0 / keyint=24 / keyint_min=1 / scenecut=40 / intra_refresh=0 / rc_lookahead=0 / rc=abr / mbtree=0 / bitrate=2521 / ratetol=1.0 / qcomp=0.60 / qpmin=0 / qpmax=51 / qpstep=4 / vbv_maxrate=17500 / vbv_bufsize=14500 / ip_ratio=1.10 / pb_ratio=1.10 / aq=1:1.00 / nal_hrd=vbr
Аудио
Идентификатор                    : 1
Формат                           : AC-3
Формат/Информация                : Audio Coding 3
Расширение режима                : CM (complete main)
Идентификатор кодека             : A_AC3
Продолжительность                : 1 ч. 47 м.
Вид битрейта                     : Постоянный
Битрейт                          : 448 Кбит/сек
Каналы                           : 6 каналов
Расположение каналов             : Front: L C R, Side: L R, LFE
Частота                          : 48,0 КГц
Битовая глубина                  : 16 бит
Метод сжатия                     : С потерями
Размер потока                    : 346 Мбайт (15%)

Скриншоты

       

Назад в будущее 3

Назад в будущее 3 / Back to the Future Part III
Русское название:Назад в будущее 3
Оригинальное название: Back to the Future Part III
Год выпуска: 1990
Режиссер: Роберт Земекис
В ролях: Майкл Дж. Фокс, Кристофер Ллойд, Мэри Стинберген, Томас Ф. Уилсон, Лиа Томпсон, Элизабет Шу, Джеймс Толкан, Мэтт Кларк, Даб Тейлор, Гарри Кэри мл.
Страна: США
Продолжительность: 118 мин. / 01:58
Продюссер: Нил Кэнтон, Боб Гейл, Кэтлин Кеннеди
Сценарий: Боб Гейл, Роберт Земекис
Премьера в мире: 25 мая 1990
Жанр: фантастика, комедия, приключения, вестерн
Перевод: Профессиональный(дублированный)
Бюджет: $40 000 000
Описание: Из газет 1955 года Марти узнает, что доктор Браун погиб еще сто лет назад. Несмотря на просьбы Дока не навещать его в XIX веке, Марти вновь хочет вмешаться в ход событий и на машине времени уносится в 1885 год, навстречу Дикому Западу.
Это путешествие, как и все прежние, не обходится без опасных приключений, но смелый Марти, рискуя жизнью, предотвращает трагедию в жизни Эммета Брауна. Тот, в свою очередь, без памяти влюбляется в очаровательную незнакомку, которую спасает от гибели, и поездка домой — в будущее — теряет для него всякий смысл…


Качество: BDRip
Формат: MKV
Видео кодек: h.264
Аудио кодек: AC3
Видео: AVC at 2199 Кбит/сек 1280 x 692 (1.850) at 23.976 fps
Аудио: AC-3 at 448 Кбит/сек 6 каналов, 48,0 КГц

MediaInfo

Код:
Полное имя                       : D:\скчаное с торрента\Назад в будущее. Трилогия\Назад в будущее 3.mkv
Формат                           : Matroska
Версия формата                   : Version 2
Размер файла                     : 2,16 Гбайт
Продолжительность                : 1 ч. 58 м.
Режим общего битрейта            : Переменный
Общий поток                      : 2616 Кбит/сек
Видео
Идентификатор                    : 2
Формат                           : AVC
Формат/Информация                : Advanced Video Codec
Профиль формата                  : [email protected]
Параметр CABAC формата           : Да
Параметр ReFrames формата        : 3 кадра
Идентификатор кодека             : V_MPEG4/ISO/AVC
Продолжительность                : 1 ч. 58 м.
Вид битрейта                     : Переменный
Битрейт                          : 2199 Кбит/сек
Максимальный битрейт             : 17,5 Мбит/сек
Ширина                           : 1280 пикселей
Высота                           : 692 пикселя
Соотношение сторон               : 1,850
Частота кадров                   : 23,976 кадра/сек
Цветовое пространство            : YUV
Субдискретизация насыщенности    : 4:2:0
Битовая глубина                  : 8 бит
Тип развёртки                    : Прогрессивная
Бит/(Пиксели*Кадры)              : 0.104
Размер потока                    : 1,75 Гбайт (81%)
Библиотека кодирования           : x264 core 110 r1820 fdcf2ae
Настройки программы              : cabac=1 / ref=3 / deblock=1:0:0 / analyse=0x3:0x113 / me=hex / subme=7 / psy=1 / psy_rd=1.00:0.00 / mixed_ref=1 / me_range=16 / chroma_me=1 / trellis=1 / 8x8dct=1 / cqm=0 / deadzone=21,11 / fast_pskip=1 / chroma_qp_offset=-2 / threads=3 / sliced_threads=0 / slices=4 / nr=0 / decimate=1 / interlaced=0 / constrained_intra=0 / bframes=3 / b_pyramid=1 / b_adapt=1 / b_bias=0 / direct=1 / weightb=1 / open_gop=2 / weightp=1 / keyint=24 / keyint_min=1 / scenecut=40 / intra_refresh=0 / rc_lookahead=24 / rc=abr / mbtree=1 / bitrate=2199 / ratetol=1.0 / qcomp=0.60 / qpmin=0 / qpmax=51 / qpstep=4 / vbv_maxrate=17500 / vbv_bufsize=14500 / ip_ratio=1.10 / aq=1:1.00 / nal_hrd=vbr
Язык                             : English
Аудио
Идентификатор                    : 1
Формат                           : AC-3
Формат/Информация                : Audio Coding 3
Расширение режима                : CM (complete main)
Идентификатор кодека             : A_AC3
Продолжительность                : 1 ч. 58 м.
Вид битрейта                     : Постоянный
Битрейт                          : 448 Кбит/сек
Каналы                           : 6 каналов
Расположение каналов             : Front: L C R, Side: L R, LFE
Частота                          : 48,0 КГц
Битовая глубина                  : 16 бит
Метод сжатия                     : С потерями
Размер потока                    : 379 Мбайт (17%)
Заголовок                        : Дубляж
Язык                             : Russian

Скриншоты

         

_________________
Бороться и искать, найти и не сдваться.


Последний раз редактировалось: centrashi (2012-03-22 10:20), всего редактировалось 2 раз(а)
Вне форума [Профиль] [ЛС]

Kamsi

Стаж: 7 лет 4 месяца

Сообщений: 3

Торрент-статистика

Пост 04-Май-2012 16:34 (спустя 1 месяц 13 дней)

[Цитировать]

вот недавно трилогию по каналу тнт показывали.
а здесь и качество другое/ да перевод измененный/
+хочу еще раз переглядеть.
спасибо сайту за эту прекрасную трилогию!!
Вне форума [Профиль] [ЛС]
Показать сообщения:    
Ответить на тему

Текущее время: Сегодня 02:04

Часовой пояс: GMT + 3



Вы не можете начинать темы
Вы не можете отвечать на сообщения
Вы не можете редактировать свои сообщения
Вы не можете удалять свои сообщения
Вы не можете голосовать в опросах
Вы не можете прикреплять файлы к сообщениям
Вы не можете скачивать файлы