Today is a free download without charge Download

Тайна в его глазах / El secreto de sus ojos / The Secret in Their Eyes (Хуан Хосе Кампанелла / Juan Jose Campanella) [2009, Испания, Аргентина, мелодрама, драма, детектив, BDRip 108p] MVO + VO Сербин + VO Доцент + Original Spa + Sub Rus Eng

Reply to topic
 
Author
Message

Delia ®

Gender:

Longevity: 11 years

Posts: 1821

Торрент-статистика

Post 21-Mar-2012 18:32

[Quote]

Тайна в его глазах / El secreto de sus ojos--
Год выпуска: 2009
Страна: Испания , Аргентина
Жанр: триллер, драма, детектив, ...
Продолжительность: 02:09:15
Перевод: Профессиональный (многоголосый закадровый)
Субтитры: Russian, English (UTF-8),
Режиссер: Хуан Хосе Кампанелла
Сценарий: Хуан Хосе Кампанелла, Эдуардо Сачери
Продюсер: Мариэла Безуевски, Хуан Хосе Кампанелла, Каролина Урбиета, ...
Оператор: Феликс Монти
Композитор: Федерико Хусид, Эмилио Каудерер
Художник: Марсело Понт Вергес, Сесилия Монти
Монтаж: Хуан Хосе Кампанелла- В ролях: Соледад Вильямиль (Soledad Villamil), Рикардо Дарин (Ricardo Darin), Карла Кеведо (Carla Quevedo), Пабло Раго (Pablo Rago), Хавьер Годино (Javier Godino), Барбара Палладино (Barbara Palladino), Руди Романо (Rudy Romano), Алехандра Абеленда (Alejandro Abelenda), Марио Аларкон (Mario Alarcon), Гильермо Франселла (Guillermo Francella), Sebastian Blanco, Мариано Ардженто (Mariano Argento), Хосе Луис Джиоиа (Jose Luis Gioia), Juan Jose Ortiz, Кико Церон (Kiko Cerone), Фернандо Пардо (Fernando Pardo), Максимилианно Тренто (Maximiliano Trento), Серджо Лопез Сантана (Sergio Lopez Santana), Elvio Duvini, Дэвид Ди Наполи (David Di Napoli)
Описание:Фильм ведётся в форме воспоминаний судебного служащего Бенхамина Эспоcито (Рикардо Дарин), решившего написать книгу о давнем событии, которое его потрясло до глубины души. Двадцать пять лет назад, в 1974 году, он начал расследовать дело молодой женщины, жестоко изнасилованной и убитой в своем доме в одном из районов Буэнос-Айреса. Эспосито пообещал шокированному трагедией вдовцу Рикардо Моралесу (Пабло Раго) найти преступников. С помощью своего более старшего по возрасту коллеги Пабло Сандоваля (судебного следователя, страдающего алкоголизмом) и новой руководительницы департамента Ирене Менендес Хейстингс (Соледад Вильямиль) он приступает к делу. ----Качество: BDRip1080р
Формат: MKV
Видео кодек: AVC
Аудио кодеk: AC3
Видео: 1920x816 (2.35:1), 23.976 fps, AVC, 4 393 Kbps
Аудио: Аудио #1: AC3, 448 Kbps, 48.0 KHz, 6 ch RUS MVO
Отдельно:
AC3, 448 kb/s, 5.1, 48 kHz, 16 bits [Сербин]
AC3, 448 kb/s, 5.1, 48 kHz, 16 bits [Доцент]
AC3, 640 kb/s, 5.1, 48 kHz, 16 bits [SPA] оригинал

МедиаИнфо

Код:
General
Complete name                    : The Secret in Their Eyes 2009 1080p .mkv
Format                           : Matroska
File size                        : 4.37 GiB
Duration                         : 2h 9mn
Overall bit rate                 : 4 844 Kbps
Encoded date                     : UTC 2012-03-21 11:50:28
Writing application              : mkvmerge v5.4.0 ('Piper') built on Mar 10 2012 13:34:39
Writing library                  : libebml v1.2.3 + libmatroska v1.3.0
Video
ID                               : 1
Format                           : AVC
Format/Info                      : Advanced Video Codec
Format profile                   : [email protected]
Format settings, CABAC           : Yes
Format settings, ReFrames        : 5 frames
Muxing mode                      : Container [email protected]
Codec ID                         : V_MPEG4/ISO/AVC
Duration                         : 2h 9mn
Bit rate                         : 4 393 Kbps
Width                            : 1 920 pixels
Height                           : 816 pixels
Display aspect ratio             : 2.35:1
Frame rate                       : 23.976 fps
Color space                      : YUV
Chroma subsampling               : 4:2:0
Bit depth                        : 8 bits
Scan type                        : Progressive
Bits/(Pixel*Frame)               : 0.117
Stream size                      : 3.88 GiB (89%)
Title                            : FREEISLAND
Writing library                  : x264 core 122 r2184 5c85e0a
Encoding settings                : cabac=1 / ref=5 / deblock=1:-3:-3 / analyse=0x3:0x113 / me=umh / subme=10 / psy=1 / psy_rd=1.10:0.15 / mixed_ref=1 / me_range=32 / chroma_me=1 / trellis=2 / 8x8dct=1 / cqm=0 / deadzone=21,11 / fast_pskip=0 / chroma_qp_offset=-3 / threads=6 / sliced_threads=0 / nr=0 / decimate=1 / interlaced=0 / bluray_compat=0 / constrained_intra=0 / bframes=7 / b_pyramid=2 / b_adapt=2 / b_bias=0 / direct=3 / weightb=1 / open_gop=0 / weightp=2 / keyint=230 / keyint_min=22 / scenecut=40 / intra_refresh=0 / rc=2pass / mbtree=0 / bitrate=4393 / ratetol=1.0 / qcomp=0.70 / qpmin=0 / qpmax=69 / qpstep=4 / cplxblur=20.0 / qblur=0.5 / ip_ratio=1.40 / pb_ratio=1.20 / aq=2:0.90
Color primaries                  : BT.709-5, BT.1361, IEC 61966-2-4, SMPTE RP177
Transfer characteristics         : BT.709-5, BT.1361
Matrix coefficients              : BT.709-5, BT.1361, IEC 61966-2-4 709, SMPTE RP177
Audio
ID                               : 2
Format                           : AC-3
Format/Info                      : Audio Coding 3
Mode extension                   : CM (complete main)
Codec ID                         : A_AC3
Duration                         : 2h 9mn
Bit rate mode                    : Constant
Bit rate                         : 448 Kbps
Channel(s)                       : 6 channels
Channel positions                : Front: L C R, Side: L R, LFE
Sampling rate                    : 48.0 KHz
Bit depth                        : 16 bits
Stream size                      : 414 MiB (9%)
Title                            : [MVO]
Language                         : Russian
Text #1
ID                               : 3
Format                           : UTF-8
Codec ID                         : S_TEXT/UTF8
Codec ID/Info                    : UTF-8 Plain Text
Language                         : Russian
Text #2
ID                               : 4
Format                           : UTF-8
Codec ID                         : S_TEXT/UTF8
Codec ID/Info                    : UTF-8 Plain Text
Menu
00:00:00.000                     : en:Chapter 01
00:10:03.059                     : en:Chapter 02
00:18:46.916                     : en:Chapter 03
00:26:59.701                     : en:Chapter 04
00:33:27.588                     : en:Chapter 05
00:40:40.396                     : en:Chapter 06
00:47:17.333                     : en:Chapter 07
00:55:41.421                     : en:Chapter 08
01:00:35.840                     : en:Chapter 09
01:05:49.945                     : en:Chapter 10
01:16:23.578                     : en:Chapter 11
01:25:10.979                     : en:Chapter 12
01:34:59.110                     : en:Chapter 13
01:39:37.596                     : en:Chapter 14
01:46:36.264                     : en:Chapter 15
01:55:26.544                     : en:Chapter 16


Скриншоты

     
     

_________________
Человек – это канат, натянутый между животным и сверхчеловеком, – канат над пропастью.
В человеке ценно то, что он мост, а не цель. Фридрих Ницше
Other forum [Profile] [PM]

Shabelia

Longevity: 9 years 3 months

Posts: 43

Торрент-статистика

Post 21-Mar-2012 21:24 (after 2 hours 51 minute)

[Quote]

качественное кино, без соплей, с хорошим психологическим приемом
Other forum [Profile] [PM]
Display posts from previous:    
Reply to topic

The time now is: Today 02:32

All times are GMT + 3 Hours



You cannot post new topics in this forum
You cannot reply to topics in this forum
You cannot edit your posts in this forum
You cannot delete your posts in this forum
You cannot vote in polls in this forum
You cannot attach files in this forum
You cannot download files in this forum