Today is a free download without charge Download

Стелс / Stealth (Роб Коэн) [2005 г., фантастика, боевик, триллер, приключения, BDRip]

Reply to topic
 
Author
Message

centrashi ®

Gender:

Longevity: 8 years 10 months

Posts: 51

Location: Украина

Торрент-статистика

Post 21-Mar-2012 14:53

[Quote]

Стелс / Stealth
Русское название:Стелс
Оригинальное название: Stealth
Год выпуска: 2005
Режиссер: Роб Коэн
В ролях: Джош Лукас, Джессика Бил, Джейми Фокс, Сэм Шепард, Ричард Роксбург, Джо Мортон, Йен Блисс, Эбон Мосс-Бакрак, Майкл Денкха, Роки Хелтон
Страна: США
Продолжительность: 121 мин. / 02:01
Продюссер: Майк Медавой, Нил Х. Мориц, Лора Зискин
Сценарий: У. Д. Рихтер
Премьера в мире: 27 июля 2005
Жанр: фантастика, боевик, триллер, приключения
Перевод: Профессиональный(дублированный)
Бюджет: $135 000 000
Описание: На военно-морскую авиабазу доставлен искусственный интеллект, который должен обучиться у настоящего пилота управлению боевым самолетом. По мере роста боевой и политической подготовленности, ИскИн приобретает также некоторые идеи, определенно вредные для мира во всем мире.
Самый совершенный самолет-невидимка, управляемый роботом, выходит из-под контроля. Задача авиации – вывести его из строя, пока он не спровоцировал третью мировую войну. Борьба с бесстрастной машиной, управляющей смертельным оружием разрушения, унесет жизни многих воздушных асов.


Качество: BDRip
Формат: AVI
Видео кодек: XviD
Аудио кодек: MP3
Видео: MPEG-4 Visual at 61,0 Кбит/сек 720 x 304 (2.368) at 23.976 fps
Аудио: MPEG Audio at 128 Кбит/сек 2 канала, 44,1 КГц

MediaInfo

Код:
Полное имя                       : D:\скчаное с торрента\Stels.2005.RUS.BDRip.XviD.AC3.avi
Формат                           : AVI
Формат/Информация                : Audio Video Interleave
Профиль формата                  : OpenDML
Размер файла                     : 1,24 Гбайт
Продолжительность                : 2 ч. 0 м.
Общий поток                      : 1472 Кбит/сек
Видео
Идентификатор                    : 0
Формат                           : MPEG-4 Visual
Профиль формата                  : Advanced [email protected]
Параметр BVOP формата            : 2
Параметр QPel формата            : Нет
Параметр GMC формата             : Без точки перехода
Параметр матрицы формата         : Default (H.263)
Идентификатор кодека             : XVID
Идентификатор кодека/Подсказка   : XviD
Продолжительность                : 2 ч. 0 м.
Битрейт                          : 61,0 Кбит/сек
Ширина                           : 720 пикселей
Высота                           : 304 пикселя
Соотношение сторон               : 2,35:1
Частота кадров                   : 23,976 кадра/сек
Цветовое пространство            : YUV
Субдискретизация насыщенности    : 4:2:0
Битовая глубина                  : 8 бит
Тип развёртки                    : Прогрессивная
Метод сжатия                     : С потерями
Бит/(Пиксели*Кадры)              : 0.012
Размер потока                    : 52,7 Мбайт (4%)
Библиотека кодирования           : XviD 1.2.1 (UTC 2008-12-04)
Аудио
Идентификатор                    : 1
Формат                           : MPEG Audio
Идентификатор кодека             : 55
Идентификатор кодека/Подсказка   : MP3
Продолжительность                : 2 ч. 0 м.
Битрейт                          : 128 Кбит/сек
Каналы                           : 2 канала
Частота                          : 44,1 КГц
Метод сжатия                     : С потерями
Размер потока                    : 111 Мбайт (9%)
Выравнивание                     : Соединение по промежуткам

Скриншоты

             

_________________
Бороться и искать, найти и не сдваться.
Other forum [Profile] [PM]
Display posts from previous:    
Reply to topic

The time now is: Today 21:51

All times are GMT + 3 Hours



You cannot post new topics in this forum
You cannot reply to topics in this forum
You cannot edit your posts in this forum
You cannot delete your posts in this forum
You cannot vote in polls in this forum
You cannot attach files in this forum
You cannot download files in this forum