Today is a free download without charge Download

Любовник / L’amant / The Lover (Жан-Жак Анно / Jean-Jacques Annaud) [1992, Франция, Великобритания, Вьетнам, Мелодрама, BDRip] MVO Sub Rus + Original Eng

Reply to topic
 
Author
Message

Delia ®

Gender:

Longevity: 11 years

Posts: 1821

Торрент-статистика

Post 20-Mar-2012 09:07

[Quote]

Любовник / L'amant«She gave her innocence, her passion, her body. The one thing she couldn't give was her love.»--
Год выпуска: 1992
Страна: Франция , Великобритания , Вьетнам
Жанр: драма, мелодрама, биография, ...
Продолжительность: 01:55:33
Перевод: Профессиональный (многоголосый закадровый)
Субтитры: Russian (UTF-8),
Режиссер: Жан-Жак Анно
Сценарий: Жан-Жак Анно, Жерар Браш, Маргерит Дюрас
Продюсер: Клод Берри, Тимоти Баррилл, Жак Тронель
Оператор: Робер Фрэсс
Композитор: Габриэль Яред
Художник: Хоанг Тан Эт, Оливье Радо, Ивонн Сассино Де Нель
Монтаж: Ноэль Буассон- В ролях: Джейн Марч (Jane March), Тони Люн Ка Фай (Tony Leung Ka Fai), Фредерика Мейнинже (Frederique Meininger), Арно Джованинетти (Arnaud Giovaninetti), Мельвиль Пупо (Melvil Poupaud), Лиза Фолкнер (Lisa Faulkner), Сиэм Ман (Xiem Mang), Филипп Ле Дем (Philippe Le Dem), Энн Шофюсс (Ann Schaufuss), Quach Van An, Таня Торренс (Tania Torrens), Раймонда Эдлин (Raymonde Heudeline), Yvonne Wingerter, До Мин Вьен (Do Minh Vien), Хелен Патаро (Helene Patarot), Жанна Моро (Jeanne Moreau), Фредерик Обуртин (Frederic Auburtin), Alido H. Gaudencio, Ву Дин Тхи (Vu Dinh Thi), Труонг Тху (Truong Thu)
Описание: 30-е годы. Колониальный Сайгон. Красивый, богатый, изысканный китаец знакомится с француженкой. Ей лет пятнадцать. Их любовь под родительским запретом. Но такую «империю чувств», пленительную и прочную, разрушить никому не дано.-Сборы в США: $4 899 194
Зрители: 3.2 мл
Премьера (мир): 22 января 1992, ...
Рейтинг MPAA: -- --Качество: BDRip
Формат: MKV
Видео кодек: AVC
Аудио кодеk: AC3
Видео: 1280x692 (1.850:1), 24.000 fps, AVC, 4 775 Kbps
Аудио: AC3, 192 Kbps, 48.0 KHz, 2 ch RUS MVO

Аудио #2: AC3, 448 Kbps, 48.0 KHz, 2 ch

МедиаИнфо

Код:
General
Complete name                    : The.Lover.1992.BDRip 720p.mkv
Format                           : Matroska
File size                        : 4.37 GiB
Duration                         : 1h 55mn
Overall bit rate                 : 5 415 Kbps
Encoded date                     : UTC 2012-03-20 04:12:31
Writing application              : mkvmerge v5.4.0 ('Piper') built on Mar 10 2012 13:34:39
Writing library                  : libebml v1.2.3 + libmatroska v1.3.0
Video
ID                               : 1
Format                           : AVC
Format/Info                      : Advanced Video Codec
Format profile                   : [email protected]
Format settings, CABAC           : Yes
Format settings, ReFrames        : 9 frames
Muxing mode                      : Container [email protected]
Codec ID                         : V_MPEG4/ISO/AVC
Duration                         : 1h 55mn
Bit rate                         : 4 775 Kbps
Width                            : 1 280 pixels
Height                           : 692 pixels
Display aspect ratio             : 1.850
Frame rate                       : 24.000 fps
Color space                      : YUV
Chroma subsampling               : 4:2:0
Bit depth                        : 8 bits
Scan type                        : Progressive
Bits/(Pixel*Frame)               : 0.225
Stream size                      : 3.77 GiB (86%)
Writing library                  : x264 core 122 r2184 5c85e0a
Encoding settings                : cabac=1 / ref=9 / deblock=1:-3:-3 / analyse=0x3:0x113 / me=esa / subme=9 / psy=1 / psy_rd=1.10:0.15 / mixed_ref=1 / me_range=32 / chroma_me=1 / trellis=2 / 8x8dct=1 / cqm=0 / deadzone=21,11 / fast_pskip=0 / chroma_qp_offset=-3 / threads=6 / sliced_threads=0 / nr=0 / decimate=1 / interlaced=0 / bluray_compat=0 / constrained_intra=0 / bframes=6 / b_pyramid=2 / b_adapt=2 / b_bias=0 / direct=3 / weightb=1 / open_gop=0 / weightp=2 / keyint=240 / keyint_min=22 / scenecut=40 / intra_refresh=0 / rc_lookahead=70 / rc=2pass / mbtree=1 / bitrate=4775 / ratetol=1.0 / qcomp=0.70 / qpmin=0 / qpmax=69 / qpstep=4 / cplxblur=20.0 / qblur=0.5 / ip_ratio=1.40 / aq=2:0.90
Color primaries                  : BT.709-5, BT.1361, IEC 61966-2-4, SMPTE RP177
Transfer characteristics         : BT.709-5, BT.1361
Matrix coefficients              : BT.709-5, BT.1361, IEC 61966-2-4 709, SMPTE RP177
Audio #1
ID                               : 2
Format                           : AC-3
Format/Info                      : Audio Coding 3
Mode extension                   : CM (complete main)
Codec ID                         : A_AC3
Duration                         : 1h 55mn
Bit rate mode                    : Constant
Bit rate                         : 192 Kbps
Channel(s)                       : 2 channels
Channel positions                : Front: L R
Sampling rate                    : 48.0 KHz
Bit depth                        : 16 bits
Stream size                      : 159 MiB (4%)
Language                         : Russian
Audio #2
ID                               : 3
Format                           : AC-3
Format/Info                      : Audio Coding 3
Mode extension                   : CM (complete main)
Codec ID                         : A_AC3
Duration                         : 1h 55mn
Bit rate mode                    : Constant
Bit rate                         : 448 Kbps
Channel(s)                       : 2 channels
Channel positions                : Front: L R
Sampling rate                    : 48.0 KHz
Bit depth                        : 16 bits
Stream size                      : 370 MiB (8%)
Text #1
ID                               : 4
Format                           : UTF-8
Codec ID                         : S_TEXT/UTF8
Codec ID/Info                    : UTF-8 Plain Text
Language                         : Russian
Text #2
ID                               : 5
Format                           : UTF-8
Codec ID                         : S_TEXT/UTF8
Codec ID/Info                    : UTF-8 Plain Text

Знаете ли Вы, что...

» Съемки фильма проходили в Сайгоне, для участия в массовых сценах (в ресторане / пансионате / на теплоходе) привлекались служащие российского, (тогда ещё советского) консульства и торгпредства.


Скриншоты

     
     

_________________
Человек – это канат, натянутый между животным и сверхчеловеком, – канат над пропастью.
В человеке ценно то, что он мост, а не цель. Фридрих Ницше
Other forum [Profile] [PM]
Similar theme
Forum Topic Author Torrent Replies Last Post
./templates/default/images/folder_dl.gif Обучающая и научно-популярная литература Димитрий Семеник | Наполни жизнь любовью [2010] [MP3] Omen
1 | 0

0 | 2098

6

2013-01-14 21:04
Omen Latest
Display posts from previous:    
Reply to topic

The time now is: Today 18:41

All times are GMT + 3 Hours



You cannot post new topics in this forum
You cannot reply to topics in this forum
You cannot edit your posts in this forum
You cannot delete your posts in this forum
You cannot vote in polls in this forum
You cannot attach files in this forum
You cannot download files in this forum