Today is a free download without charge Download

Терминал / The Terminal (Стивен Спилберг) [2004 г., драма, мелодрама, комедия, HDTVRip]

Reply to topic
 
Author
Message

centrashi ®

Gender:

Longevity: 8 years 10 months

Posts: 51

Location: Украина

Торрент-статистика

Post 19-Mar-2012 16:49

[Quote]

Терминал / The Terminal
Жизнь в ожидании...
Русское название: Терминал
Оригинальное название: The Terminal
Год выпуска: 2004
Режиссер: Стивен Спилберг
В ролях: Том Хэнкс /Tom Hanks/ Кэтрин Зета-Джонс /Catherine Zeta-Jones/ Стенли Туччи /Stanley Tucci/ Чи МакБрайд /Chi McBride/ Диего Луна / Diego Luna/ Кумар Паллана /Kumar Pallana/ Зои Салдана /Zoe Saldana/ Валерий Николаев и другие...
Страна: США
Продолжительность: 124 мин. / 02:04
Продюссер: Лори МакДональд, Уолтер Ф. Паркс, Стивен Спилберг
Сценарий: Саша Джерваси, Джефф Натансон, Эндрю Никкол
Премьера в мире: 9 июня 2004
Жанр: драма, мелодрама, комедия
Перевод: Профессиональный(дублированный)
Бюджет: $60 000 000
Описание: Фильм рассказывает историю Виктора Наворски, отправившегося в Нью-Йорк из Восточной Европы. Пока Виктор летел в самолете, на его родине произошел государственный переворот. Оказавшись в международном аэропорту имени Джона Кеннеди с паспортом ниоткуда, он не имеет права въехать в Соединенные Штаты и должен коротать свои дни и ночи в гостинице аэропорта, пока война в его родной стране не закончится.
Тянутся недели и месяцы, и Виктор обнаруживает, что небольшой мирок терминала может быть наполнен абсурдом, щедростью, амбициями, развлечениями, желанием сохранить свой статус, интуитивной прозорливостью и даже любовью к очаровательной стюардессе Амелии. Виктору удается завоевать симпатии всех, кроме одного человека — чиновника аэропорта Фрэнка Диксона, который считает его бюрократической ошибкой, проблемой, которую он не может контролировать, но от которой жаждет избавиться.


Качество: HDTVRip
Формат: AVI
Видео кодек: Другой MPEG4
Аудио кодек: MP3
Видео: MPEG-4 Visual at 1834 Кбит/сек 720 x 400 (1.778) at 25.000 fps
Аудио: MPEG Audio at 128 Кбит/сек 2 канала, 44,1 КГц

MediaInfo

Код:
Полное имя                       : D:\скчаное с торрента\Terminal.2004.RUS.HDTVRip.XviD.AC3.avi
Формат                           : AVI
Формат/Информация                : Audio Video Interleave
Профиль формата                  : OpenDML
Размер файла                     : 1,70 Гбайт
Продолжительность                : 2 ч. 3 м.
Общий поток                      : 1974 Кбит/сек
Видео
Идентификатор                    : 0
Формат                           : MPEG-4 Visual
Профиль формата                  : Advanced [email protected]
Параметр BVOP формата            : 2
Параметр QPel формата            : Нет
Параметр GMC формата             : Без точки перехода
Параметр матрицы формата         : Default (H.263)
Идентификатор кодека             : XVID
Идентификатор кодека/Подсказка   : XviD
Продолжительность                : 2 ч. 3 м.
Битрейт                          : 1834 Кбит/сек
Ширина                           : 720 пикселей
Высота                           : 400 пикселей
Соотношение сторон               : 16:9
Частота кадров                   : 25,000 кадров/сек
Цветовое пространство            : YUV
Субдискретизация насыщенности    : 4:2:0
Битовая глубина                  : 8 бит
Тип развёртки                    : Прогрессивная
Метод сжатия                     : С потерями
Бит/(Пиксели*Кадры)              : 0.255
Размер потока                    : 1,58 Гбайт (93%)
Библиотека кодирования           : XviD 1.2.1 (UTC 2008-12-04)
Аудио
Идентификатор                    : 1
Формат                           : MPEG Audio
Идентификатор кодека             : 55
Идентификатор кодека/Подсказка   : MP3
Продолжительность                : 2 ч. 3 м.
Битрейт                          : 128 Кбит/сек
Каналы                           : 2 канала
Частота                          : 44,1 КГц
Метод сжатия                     : С потерями
Размер потока                    : 1,22 Мбайт (0%)
Выравнивание                     : Соединение по промежуткам
Продолжительность промежутка     : 2429  мс. (60,73 видеокадров)
Время предзагрузки промежутка    : 522  мс.

Скриншоты

                 

_________________
Бороться и искать, найти и не сдваться.


Last edited by centrashi on 2012-03-20 03:49; edited 2 times in total
Other forum [Profile] [PM]
Display posts from previous:    
Reply to topic

The time now is: Today 02:35

All times are GMT + 3 Hours



You cannot post new topics in this forum
You cannot reply to topics in this forum
You cannot edit your posts in this forum
You cannot delete your posts in this forum
You cannot vote in polls in this forum
You cannot attach files in this forum
You cannot download files in this forum