Today is a free download without charge Download

Наследие тамплиеров / Das Blut der Templer (Флориан Баксмейер) [2004 г., Фантастика, приключения, DVDRip]

Reply to topic
 
Author
Message

centrashi ®

Gender:

Longevity: 8 years 10 months

Posts: 51

Location: Украина

Торрент-статистика

Post 18-Mar-2012 20:41

[Quote]

Наследие тамплиеров / Das Blut der Templer
Русское название: Наследие тамплиеров
Оригинальное название: Das Blut der Templer
Год выпуска: 2004
Режиссер: Флориан Баксмейер
В ролях: Мирко Лэнг, Катрин Х. Флемминг, Алиция Бахледа-Цуруш, Саулюс Баландис, Стефан Барт, Daniel Dupant, Питер Франке, Михал Грюн
Страна: Германия
Продолжительность: 180 мин. / 03:00
Продюссер: Ули Эберли, Стефан Барт, Анита Шнайдер
Сценарий: Стефан Барт, Kai-Uwe Hasenheit, Вернер Поссардт
Премьера в мире: 9 декабря 2004
Жанр: Фантастика, приключения
Перевод: Профессиональный (многоголосый закадровый)
Описание: Давид - наследник Великого магистра древнего ордена тамплиеров - Рыцарей Храма. Его призвание - не дать силам Зла захватить чашу Святого Грааля и обрести неограниченную власть над человечеством. Не ведая тайны своего происхождения, он становится катализатором цепочки судьбоносных событий. Нескончаемая многовековая битва между Светом и Тьмой за обладание священной реликвией разгорается с новой яростью...


Качество: DVDRip
Формат: AVI
Видео кодек: Другой MPEG4
Аудио кодек: AC3
Часть 1:
Видео: MPEG-4 Visual at 1734 Кбит/сек 704 x 400 (1.760) at 25.000 fps
Аудио: AC-3 at 384 Кбит/сек 6 каналов, 48,0 КГц

MediaInfo

Код:
Полное имя                       : D:\скчаное с торрента\наследие тамплиеров\Nasledie.Tamplierov.(1.chast.iz.2).2004.XviD.DVDRip.avi
Формат                           : AVI
Формат/Информация                : Audio Video Interleave
Размер файла                     : 1,37 Гбайт
Продолжительность                : 1 ч. 32 м.
Общий поток                      : 2125 Кбит/сек
Название фильма                  : N
Режиссёр                         : Z
Программа кодирования            : V
Видео
Идентификатор                    : 0
Формат                           : MPEG-4 Visual
Профиль формата                  : Advanced [email protected]
Параметр BVOP формата            : 1
Параметр QPel формата            : Нет
Параметр GMC формата             : Без точки перехода
Параметр матрицы формата         : Выборочная
Идентификатор кодека             : XVID
Идентификатор кодека/Подсказка   : XviD
Продолжительность                : 1 ч. 32 м.
Битрейт                          : 1734 Кбит/сек
Ширина                           : 704 пикселя
Высота                           : 400 пикселей
Соотношение сторон               : 16:9
Частота кадров                   : 25,000 кадров/сек
Цветовое пространство            : YUV
Субдискретизация насыщенности    : 4:2:0
Битовая глубина                  : 8 бит
Тип развёртки                    : Прогрессивная
Метод сжатия                     : С потерями
Бит/(Пиксели*Кадры)              : 0.246
Размер потока                    : 1,12 Гбайт (82%)
Библиотека кодирования           : XviD 1.2.1 (UTC 2008-12-04)
Аудио
Идентификатор                    : 1
Формат                           : AC-3
Формат/Информация                : Audio Coding 3
Расширение режима                : CM (complete main)
Идентификатор кодека             : 2000
Продолжительность                : 1 ч. 32 м.
Вид битрейта                     : Постоянный
Битрейт                          : 384 Кбит/сек
Каналы                           : 6 каналов
Расположение каналов             : Front: L C R, Side: L R, LFE
Частота                          : 48,0 КГц
Битовая глубина                  : 16 бит
Метод сжатия                     : С потерями
Размер потока                    : 253 Мбайт (18%)
Выравнивание                     : Разделение по промежуткам
Продолжительность промежутка     : 96  мс. (2,40 видеокадра)
Время предзагрузки промежутка    : 96  мс.
Часть 2:
Видео: MPEG-4 Visual at 1620 Кбит/сек 704 x 400 (1.760) at 25.000 fps
Аудио: AC-3 at 384 Кбит/сек 6 каналов, 48,0 КГц

MediaInfo

Код:
Полное имя                       : D:\скчаное с торрента\наследие тамплиеров\Nasledie.Tamplierov.(2.chast.iz.2).2004.XviD.DVDRip.avi
Формат                           : AVI
Формат/Информация                : Audio Video Interleave
Размер файла                     : 1,37 Гбайт
Продолжительность                : 1 ч. 37 м.
Общий поток                      : 2011 Кбит/сек
Название фильма                  : N
Режиссёр                         : Z
Программа кодирования            : V
Видео
Идентификатор                    : 0
Формат                           : MPEG-4 Visual
Профиль формата                  : Advanced [email protected]
Параметр BVOP формата            : 1
Параметр QPel формата            : Нет
Параметр GMC формата             : Без точки перехода
Параметр матрицы формата         : Выборочная
Идентификатор кодека             : XVID
Идентификатор кодека/Подсказка   : XviD
Продолжительность                : 1 ч. 37 м.
Битрейт                          : 1620 Кбит/сек
Ширина                           : 704 пикселя
Высота                           : 400 пикселей
Соотношение сторон               : 16:9
Частота кадров                   : 25,000 кадров/сек
Цветовое пространство            : YUV
Субдискретизация насыщенности    : 4:2:0
Битовая глубина                  : 8 бит
Тип развёртки                    : Прогрессивная
Метод сжатия                     : С потерями
Бит/(Пиксели*Кадры)              : 0.230
Размер потока                    : 1,10 Гбайт (81%)
Библиотека кодирования           : XviD 1.2.1 (UTC 2008-12-04)
Аудио
Идентификатор                    : 1
Формат                           : AC-3
Формат/Информация                : Audio Coding 3
Расширение режима                : CM (complete main)
Идентификатор кодека             : 2000
Продолжительность                : 1 ч. 37 м.
Вид битрейта                     : Постоянный
Битрейт                          : 384 Кбит/сек
Каналы                           : 6 каналов
Расположение каналов             : Front: L C R, Side: L R, LFE
Частота                          : 48,0 КГц
Битовая глубина                  : 16 бит
Метод сжатия                     : С потерями
Размер потока                    : 268 Мбайт (19%)
Выравнивание                     : Разделение по промежуткам
Продолжительность промежутка     : 96  мс. (2,40 видеокадра)
Время предзагрузки промежутка    : 96  мс.

Скриншоты

                   

_________________
Бороться и искать, найти и не сдваться.
Other forum [Profile] [PM]
Display posts from previous:    
Reply to topic

The time now is: Today 00:50

All times are GMT + 3 Hours



You cannot post new topics in this forum
You cannot reply to topics in this forum
You cannot edit your posts in this forum
You cannot delete your posts in this forum
You cannot vote in polls in this forum
You cannot attach files in this forum
You cannot download files in this forum