Today is a free download without charge Download

Сорвиголова / Daredevil (Марк Стивен Джонсон/Mark Steven Johnson) [2003 г., фэнтези, боевик, триллер, криминал, BDRip]

Reply to topic
 
Author
Message

centrashi ®

Gender:

Longevity: 8 years 10 months

Posts: 51

Location: Украина

Торрент-статистика

Post 17-Mar-2012 12:04

[Quote]

Сорвиголова / Daredevil
Русское название: Сорвиголова
Оригинальное название: Daredevil
Год выпуска: 2003
Режиссер: Марк Стивен Джонсон
В ролях: Бен Аффлек, Дженнифер Гарнер, Колин Фаррелл, Майкл Кларк Дункан, Джон Фавро, Скотт Терра, Эллен Помпео, Джо Пантолиано, Лелэнд Орсер, Ленни Лофтин
Страна: США
Продолжительность: 103 мин. / 01:43
Продюссер: Ави Арад, Гари Фостер, Арнон Милчэн
Сценарий: Марк Стивен Джонсон
Премьера в мире: 9 февраля 2003
Жанр: фэнтези, боевик, триллер, криминал
Перевод: Профессиональный (полное дублирование)
Бюджет: $78 000 000
Описание: В возрасте 12 лет Мэтт Мердок потерял зрение в результате несчастного случая, но зато остальные четыре чувства у него обострились как ни у кого другого. Но однажды случается страшное, его отца убивают, и слепой Мэтт должен отомстить за него. Парень вырос и стал преуспевающим адвокатом. Он живёт в мире вечной ночи, но эта темнота заполнена звуками и запахами, её можно попробовать на вкус и потрогать руками. Адвокат Мэтт Мердок слеп, но остальные органы чувств у него работают, как у супермэна. Днём Мердок защищает униженных и оскорблённых в зале суда, а ночью превращается в сорвиголову в маске, восстанавливая справедливость на улицах города самыми радикальными методами.
PG-13 - Детям до 13 лет просмотр не желателен
5.40 (85 979)

Качество: BDRip
Формат: AVI
Видео кодек:XviD
Аудио кодек: AC3
Видео: MPEG-4 Visual at 1617 Кбит/сек 720 x 304 (2.368) at 23.976 fps
Аудио: AC-3 at 384 Кбит/сек 6 каналов, 48,0 КГц

MediaInfo

Код:
Полное имя                       : D:\скчаное с торрента\Sorvigolova.2003.RUS.BDRip.XviD.AC3.avi
Формат                           : AVI
Формат/Информация                : Audio Video Interleave
Размер файла                     : 1,45 Гбайт
Продолжительность                : 1 ч. 43 м.
Общий поток                      : 2010 Кбит/сек
Библиотека кодирования           : VirtualDub build 30009/release
Видео
Идентификатор                    : 0
Формат                           : MPEG-4 Visual
Профиль формата                  : Advanced [email protected]
Параметр BVOP формата            : 1
Параметр QPel формата            : Нет
Параметр GMC формата             : Без точки перехода
Параметр матрицы формата         : Default (MPEG)
Идентификатор кодека             : XVID
Идентификатор кодека/Подсказка   : XviD
Продолжительность                : 1 ч. 43 м.
Битрейт                          : 1617 Кбит/сек
Ширина                           : 720 пикселей
Высота                           : 304 пикселя
Соотношение сторон               : 2,35:1
Частота кадров                   : 23,976 кадра/сек
Цветовое пространство            : YUV
Субдискретизация насыщенности    : 4:2:0
Битовая глубина                  : 8 бит
Тип развёртки                    : Прогрессивная
Метод сжатия                     : С потерями
Бит/(Пиксели*Кадры)              : 0.308
Размер потока                    : 1,17 Гбайт (80%)
Библиотека кодирования           : XviD 1.2.1 (UTC 2008-12-04)
Аудио
Идентификатор                    : 1
Формат                           : AC-3
Формат/Информация                : Audio Coding 3
Расширение режима                : CM (complete main)
Идентификатор кодека             : 2000
Продолжительность                : 1 ч. 43 м.
Вид битрейта                     : Постоянный
Битрейт                          : 384 Кбит/сек
Каналы                           : 6 каналов
Расположение каналов             : Front: L C R, Side: L R, LFE
Частота                          : 48,0 КГц
Битовая глубина                  : 16 бит
Метод сжатия                     : С потерями
Размер потока                    : 284 Мбайт (19%)
Выравнивание                     : Соединение по промежуткам
Продолжительность промежутка     : 42  мс. (1,00 видеокадр)
Время предзагрузки промежутка    : 512  мс.

Скриншоты

                     

_________________
Бороться и искать, найти и не сдваться.


Last edited by centrashi on 2012-03-17 13:09; edited 2 times in total
Other forum [Profile] [PM]
Display posts from previous:    
Reply to topic

The time now is: Today 14:19

All times are GMT + 3 Hours



You cannot post new topics in this forum
You cannot reply to topics in this forum
You cannot edit your posts in this forum
You cannot delete your posts in this forum
You cannot vote in polls in this forum
You cannot attach files in this forum
You cannot download files in this forum