Today is a free download without charge Download

}{отт@бь)ч (Петр Точилин) [2006 г., комедия, приключения, DVDRip]

Reply to topic
 
Author
Message

centrashi ®

Gender:

Longevity: 8 years 10 months

Posts: 51

Location: Украина

Торрент-статистика

Post 16-Mar-2012 17:21

[Quote]

}{отт@бь)ч/Хоттабыч
Русское название: Хоттабыч
Оригинальное название:}{отт@бь)ч
Год выпуска: 2006
Режиссер: Петр Точилин
В ролях: Владимир Толоконников, Марюс Ямпольскис, Лива Круминя, Марк Гейхман, Юлия Паранова, Мила Липнер, Григорий Скряпкин, Иван Губанов, Александр Овчинников, Юрий Думчев
Страна: Россия
Продолжительность: 92 мин. / 01:32
Продюссер: Константин Буслов, Сергей Долгошейн, Сергей Сельянов
Сценарий: Вероника Возняк, Сергей Кладо
Премьера в мире: 22 сентебря 2006
Жанр: комедия, приключения
Перевод: Не требуется
Описание: Гена — программист по призванию и хакер по жизни. Он хороший парень. Но у него реальные проблемы. Его бросила любимая девушка, его «пасут» бандиты и выслеживают спецслужбы. Спасти его может только чудо, и оно, конечно же, случается. В жизни Гены появляется Хоттабыч, джин, который отмотал несколько тысяч лет заключения в одиночном кувшине.И теперь готов исполнить три любых желания своего освободителя. Но у самого Хоттабыча тоже проблемы. За ним охотится его давний враг — Шайтаныч. Спасаясь от своих врагов, Гена и Хоттабыч летают на потраченном говорящей молью ковре-самолете над Красной площадью, путешествуют по сетям Мировой Паутины и практикуют магию: превращают людей в вещи, а вещи в людей...
6.30 (698)

Качество: DVDRip
Формат: AVI
Видео кодек: Другой MPEG4
Аудио кодек: AC3
Видео: MPEG-4 Visual at 1680 Кбит/сек 720 x 368 (1.957) at 25.000 fps
Аудио: AC-3 at 448 Кбит/сек 6 каналов, 48,0 КГц

MediaInfo

Код:
Полное имя                       : D:\скчаное с торрента\hottabich.avi
Формат                           : AVI
Формат/Информация                : Audio Video Interleave
Размер файла                     : 1,37 Гбайт
Продолжительность                : 1 ч. 31 м.
Общий поток                      : 2135 Кбит/сек
Программа кодирования            : VirtualDubMod 1.5.4.1 (build 2178/release)
Библиотека кодирования           : VirtualDubMod build 2178/release
Видео
Идентификатор                    : 0
Формат                           : MPEG-4 Visual
Профиль формата                  : Advanced [email protected]
Параметр BVOP формата            : 1
Параметр QPel формата            : Нет
Параметр GMC формата             : Без точки перехода
Параметр матрицы формата         : Выборочная
Идентификатор кодека             : XVID
Идентификатор кодека/Подсказка   : XviD
Продолжительность                : 1 ч. 31 м.
Битрейт                          : 1680 Кбит/сек
Ширина                           : 720 пикселей
Высота                           : 368 пикселей
Соотношение сторон               : 1,957
Частота кадров                   : 25,000 кадров/сек
Цветовое пространство            : YUV
Субдискретизация насыщенности    : 4:2:0
Битовая глубина                  : 8 бит
Тип развёртки                    : Прогрессивная
Метод сжатия                     : С потерями
Бит/(Пиксели*Кадры)              : 0.254
Размер потока                    : 1,08 Гбайт (79%)
Библиотека кодирования           : XviD 1.2.0SMP (UTC 2006-01-08)
Аудио
Идентификатор                    : 1
Формат                           : AC-3
Формат/Информация                : Audio Coding 3
Расширение режима                : CM (complete main)
Идентификатор кодека             : 2000
Продолжительность                : 1 ч. 31 м.
Вид битрейта                     : Постоянный
Битрейт                          : 448 Кбит/сек
Каналы                           : 6 каналов
Расположение каналов             : Front: L C R, Side: L R, LFE
Частота                          : 48,0 КГц
Битовая глубина                  : 16 бит
Метод сжатия                     : С потерями
Задержка видео                   : 13 с.
Размер потока                    : 294 Мбайт (21%)
Выравнивание                     : Разделение по промежуткам
Продолжительность промежутка     : 96  мс. (2,40 видеокадра)
Время предзагрузки промежутка    : 96  мс.

Скриншоты

             

_________________
Бороться и искать, найти и не сдваться.
Other forum [Profile] [PM]

Dracula

Longevity: 7 years 1 month

Posts: 11397

Торрент-статистика

Post 16-Mar-2012 18:16 (after 55 minutes)

Топик был перенесен из форума Фильмы 2006-2011 в форум Наше кино (2001 - 2011)


sassad
 
Display posts from previous:    
Reply to topic

The time now is: Today 12:20

All times are GMT + 3 Hours



You cannot post new topics in this forum
You cannot reply to topics in this forum
You cannot edit your posts in this forum
You cannot delete your posts in this forum
You cannot vote in polls in this forum
You cannot attach files in this forum
You cannot download files in this forum