Today is a free download without charge Download

Темный рыцарь / The Dark Knight (Кристофер Нолан) [2008 г., фантастика, боевик, триллер, криминал, DVDRip]

Reply to topic
 
Author
Message

centrashi ®

Gender:

Longevity: 9 years 5 months

Posts: 51

Location: Украина

Торрент-статистика

Post 15-Mar-2012 21:48

[Quote]

Темный рыцарь / The Dark Knight
Русское название: Темный рыцарь
Оригинальное название:The Dark Knight
Год выпуска: 2008
Режиссер: Кристофер Нолан
В ролях: Кристиан Бэйл, Хит Леджер, Аарон Экхарт, Майкл Кейн, Мэгги Джилленхол, Гари Олдман, Морган Фриман, Моника Карнен, Рон Дин, Киллиан Мёрфи
Страна: США, Великобритания
Продолжительность: 152 мин. / 02:32
Продюссер: Кристофер Нолан, Лорни Орлинз, Чарльз Ровен
Сценарий: Кристофер Нолан, Джонатан Нолан, Дэвид С. Гойер
Премьера в мире: 14 июля 2008
Жанр: фантастика, боевик, триллер, криминал
Перевод: Профессиональный(полное дублирование)
Бюджет: $185 000 000
Описание: Бэтмен поднимает ставки в войне с криминалом. С помощью лейтенанта Джима Гордона и прокурора Харви Дента он намерен очистить улицы от преступности, отравляющей город. Сотрудничество оказывается эффективным, но скоро они обнаружат себя посреди хаоса, развязанного восходящим криминальным гением, известным испуганным горожанам под именем Джокер.
PG-13 - Детям до 13 лет просмотр не желателен
8.90 (659 420)

Качество: DVDRip
Формат: AVI
Видео кодек: Xvid
Аудио кодек: AC3
Видео:688x288 (2.39:1), 23.976 fps, XviD MPEG-4 ~1165 kbps avg, 0.25 bit/pixel
Аудио:Dolby AC3 48000Hz stereo 192kbps

MediaInfo

Код:
Полное имя                       : D:\скчаное с торрента\бэтмэн\Dark_Knight_.avi
Формат                           : AVI
Формат/Информация                : Audio Video Interleave
Размер файла                     : 1,45 Гбайт
Продолжительность                : 2 ч. 32 м.
Общий поток                      : 1367 Кбит/сек
Название фильма                  : The Dark Knight, 2008
Режиссёр                         : Petey [/*spam*/] *All Films*
Жанр                             : Action | Crime | Thriller
Программа кодирования            : VirtualDubMod 1.5.10.2 (build 2540/release)
Формат оригинала/Имя             : Movie
Видео
Идентификатор                    : 0
Формат                           : MPEG-4 Visual
Профиль формата                  : Advanced [email protected]
Параметр BVOP формата            : 2
Параметр QPel формата            : Нет
Параметр GMC формата             : Без точки перехода
Параметр матрицы формата         : Выборочная
Режим смешивания                 : Сжатый битовый поток
Идентификатор кодека             : XVID
Идентификатор кодека/Подсказка   : XviD
Продолжительность                : 2 ч. 32 м.
Битрейт                          : 1165 Кбит/сек
Ширина                           : 688 пикселей
Высота                           : 288 пикселей
Соотношение сторон               : 2,40:1
Частота кадров                   : 23,976 кадра/сек
Цветовое пространство            : YUV
Субдискретизация насыщенности    : 4:2:0
Битовая глубина                  : 8 бит
Тип развёртки                    : Прогрессивная
Метод сжатия                     : С потерями
Бит/(Пиксели*Кадры)              : 0.245
Размер потока                    : 1,24 Гбайт (85%)
Библиотека кодирования           : XviD 1.2.1 (UTC 2008-12-04)
Аудио
Идентификатор                    : 1
Формат                           : AC-3
Формат/Информация                : Audio Coding 3
Расширение режима                : CM (complete main)
Идентификатор кодека             : 2000
Продолжительность                : 2 ч. 32 м.
Вид битрейта                     : Постоянный
Битрейт                          : 192 Кбит/сек
Каналы                           : 2 канала
Расположение каналов             : Front: L R
Частота                          : 48,0 КГц
Битовая глубина                  : 16 бит
Метод сжатия                     : С потерями
Размер потока                    : 209 Мбайт (14%)
Выравнивание                     : Разделение по промежуткам
Продолжительность промежутка     : 42  мс. (1,00 видеокадр)
Время предзагрузки промежутка    : 500  мс.

Скриншоты

           

_________________
Бороться и искать, найти и не сдваться.


Last edited by centrashi on 2012-03-16 14:25; edited 7 times in total
Other forum [Profile] [PM]
Display posts from previous:    
Reply to topic

The time now is: Today 23:46

All times are GMT + 3 Hours



You cannot post new topics in this forum
You cannot reply to topics in this forum
You cannot edit your posts in this forum
You cannot delete your posts in this forum
You cannot vote in polls in this forum
You cannot attach files in this forum
You cannot download files in this forum